Loading...
Error

Скачать Столкновение с бездной / Deep Impact (Мими Ледер / Mimi Leder) [1998 г., фантастика, триллер, BDRip - AVC] [DUB] торрент без регистрации

 
Статистика раздачи
Размер:  2,14 GB   |    Скачан:  163 раза

Полного источника не было: 29 минут

 
Автор Сообщение

and77200

[] 


Deep Impact

«Heaven and Earth are about to collide.»

Год выпуска:1998
Страна: США
Жанр: фантастика, боевик, триллер, драма, мелодрама
Продолжительность: 02:01:11
Перевод: Профессиональный (полное дублирование)
Режиссер: Мими Ледер / Mimi Leder

В ролях: Роберт Дюваль (Spurgeon Tanner), Теа Леони (Jenny Lerner), Элайджа Вуд (Leo Biederman), Ванесса Редгрейв (Robin Lerner), Морган Фриман (President Beck), Максимилиан Шелл (Jason Lerner), Джеймс Кромуэлл (Alan Rittenhouse), Рон Элдард (Oren Monash), Джон Фавро (Gus Partenza), Лора Иннес (Beth Stanley), Мэри МакКормак (Andrea Baker), Ричард Шифф (Don Biederman)
Описание: Земле грозит неизбежное столкновением с кометой, что приведет к гибели всего живого. Президент США сообщает миру, что до «столкновения с бездной» остается год. На комету отправляют корабль «Мессия» который должен взорвать комету. Но от взрыва комета разлетается на две части. Ничто не может спасти человечество. Как поведут себя люди?...

Качество: BDRip - AVC
Контейнер: MKV
Видео кодек: AVC
Аудио кодек: AC3

Видео: AVC, 1024x424 (2.35:1), 2100 kbps, 23,976 fps, 0,202 bpp
Аудио: русский / AC3 / 5.1 / 48 kHz / 448 kbps / 16 bit
Рип: and77200




General
Complete name : E:\торрент\Столкновение с бездной (1998) BDRip - AVC.mkv
Format : Matroska
File size : 2.14 GiB
Duration : 2h 1mn
Overall bit rate : 2 531 Kbps
Encoded date : UTC 2013-02-21 05:11:20
Writing application : mkvmerge v5.7.0 ('The Whirlwind') built on Jul 8 2012 20:08:51
Writing library : libebml v1.2.3 + libmatroska v1.3.0

Video
ID : 1
Format : AVC
Format/Info : Advanced Video Codec
Format profile : High@L4.1
Format settings, CABAC : Yes
Format settings, ReFrames : 4 frames
Muxing mode : Container profile=Unknown@4.1
Codec ID : V_MPEG4/ISO/AVC
Duration : 2h 1mn
Bit rate : 2 033 Kbps
Nominal bit rate : 2 100 Kbps
Width : 1 024 pixels
Height : 424 pixels
Display aspect ratio : 2.35:1
Frame rate mode : Variable
Frame rate : 23.976 fps
Resolution : 24 bits
Colorimetry : 4:2:0
Scan type : Progressive
Bits/(Pixel*Frame) : 0.195
Stream size : 1.72 GiB (80%)
Writing library : x264 core 124 r2197M 69a0443
Encoding settings : cabac=1 / ref=5 / deblock=1:0:0 / analyse=0x3:0x133 / me=umh / subme=9 / psy=1 / psy_rd=1.00:0.20 / mixed_ref=1 / me_range=16 / chroma_me=1 / trellis=0 / 8x8dct=1 / cqm=0 / deadzone=21,11 / fast_pskip=1 / chroma_qp_offset=-2 / threads=2 / sliced_threads=0 / nr=0 / decimate=1 / interlaced=0 / bluray_compat=0 / constrained_intra=0 / bframes=5 / b_pyramid=1 / b_adapt=0 / b_bias=0 / direct=3 / weightb=1 / open_gop=0 / weightp=0 / keyint=230 / keyint_min=23 / scenecut=40 / intra_refresh=0 / rc_lookahead=40 / rc=abr / mbtree=1 / bitrate=2100 / ratetol=1.0 / qcomp=0.60 / qpmin=10 / qpmax=51 / qpstep=5 / ip_ratio=1.40 / aq=1:1.00

Audio
ID : 2
Format : AC-3
Format/Info : Audio Coding 3
Codec ID : A_AC3
Duration : 2h 1mn
Bit rate mode : Constant
Bit rate : 448 Kbps
Channel(s) : 6 channels
Channel positions : Front: L C R, Surround: L R, LFE
Sampling rate : 48.0 KHz
Video delay : 27ms
Stream size : 388 MiB (18%)
Language : Russian

Menu
00:00:00.000 : en:00:00:00.000
00:02:37.616 : en:00:02:37.616
00:07:01.755 : en:00:07:01.755
00:10:53.945 : en:00:10:53.945
00:17:10.988 : en:00:17:10.988
00:20:37.862 : en:00:20:37.862
00:22:21.632 : en:00:22:21.632
00:25:28.026 : en:00:25:28.026
00:35:00.932 : en:00:35:00.932
00:39:13.268 : en:00:39:13.268
00:43:58.886 : en:00:43:58.886
00:51:49.023 : en:00:51:49.023
00:56:17.541 : en:00:56:17.541
01:00:15.779 : en:01:00:15.779
01:05:01.815 : en:01:05:01.815
01:09:42.220 : en:01:09:42.220
01:13:53.346 : en:01:13:53.346
01:18:10.603 : en:01:18:10.603
01:20:08.303 : en:01:20:08.303
01:22:52.467 : en:01:22:52.467
01:25:20.324 : en:01:25:20.324
01:27:46.845 : en:01:27:46.845
01:31:53.591 : en:01:31:53.591
01:34:23.074 : en:01:34:23.074
01:38:45.044 : en:01:38:45.044
01:40:55.424 : en:01:40:55.424
01:43:22.279 : en:01:43:22.279
01:46:15.119 : en:01:46:15.119
01:51:43.488 : en:01:51:43.488
01:53:23.839 : en:01:53:23.839
Оформление by and77200



Скачать Столкновение.с.бездной.Deep.Impact.(Мими.Ледер.Mimi.Leder).[1998.г.фантастика.триллер.BDRip.-.AVC].[DUB].torrent без регистрации
Золото ЗОЛОТАЯ РАЗДАЧА! СКАЧАННОЕ НЕ ЗАСЧИТЫВАЕТСЯ! Золото
Дата: Зарегистрирован   [ Тип: внутренний ] Как тут cкачать?
MAGNET ссылка
MAGNET ссылка


Скачать .torrent

11 KB

Статус: проверено DHT
Скачан: торрент - 163 раз, раздача полностью - 28 раз
Размер: 2,14 GB
Оценка:  5 (Голосов: 1)
Поблагодарили: 10
Поделиться ссылкой на эту раздачу с друзьями:
В контактеFacebookОдноклассникиTwitterLivejournalМой МирLiveinternet
 

 
Показать сообщения:    


Вы не можете начинать темы
Вы не можете отвечать на сообщения
Вы не можете редактировать свои сообщения
Вы не можете удалять свои сообщения
Вы не можете голосовать в опросах
Вы не можете прикреплять файлы к сообщениям
Вы можете скачивать файлы