Loading...
Error

Скачать Спасти рядового Райана / Saving Private Ryan (Стивен Спилберг / Steven Spielberg) [1998 г., боевик, драма, военный, история, BDRip-AVC] [DUB] торрент без регистрации

 
Статистика раздачи
Размер:  3,46 GB   |    Скачан:  200 раз
Сидов:  1  [  0 KB/s  ]  
 
Автор Сообщение

and77200

[] 


Saving Private Ryan

«The movie that inspired to the world to remember»

Год выпуска: 1998
Страна: США
Жанр: боевик, драма, военный, история
Продолжительность: 02:48:21
Перевод: Профессиональный (полное дублирование)
Режиссер: Стивен Спилберг / Steven Spielberg

В ролях: Том Хэнкс (Capt. John H. Miller), Том Сайзмор (Sgt. Mike Horvath), Эдвард Бёрнс (Pvt. Richard Reiben), Барри Пеппер (Pvt. Daniel Jackson), Адам Голдберг (Pvt. Stanley Mellish), Вин Дизель (Pvt. Adrian Caparzo), Джованни Рибизи (T-5 Medic Irwin Wade), Джереми Дэвис (Cpl. Timothy P. Upham), Мэтт Дэймон (Pvt. James Francis Ryan), Тед Дэнсон (Capt. Fred Hamill), Пол Джаматти (Sgt. Hill), Деннис Фарина (Lt. Col. Anderson)
Описание: Капитан Джон Миллер получает тяжелое задание. Вместе с отрядом из восьми человек Миллер должен отправиться в тыл врага на поиски рядового Джеймса Райана, три родных брата которого почти одновременно погибли на полях сражений.
Командование приняло решение демобилизовать Райана и отправить его на родину к безутешной матери. Но для того, чтобы найти и спасти солдата, крошечному отряду придется пройти через все круги ада...


Качество: BDRip - AVC
Контейнер: MKV
Видео кодек: AVC
Аудио кодек: AC3

Видео: AVC, 1024x552 (1.862), 2550 kbps, 23,976 fps, 0,188 bpp
Аудио: русский / AC3 / 5.1 / 48 kHz / 448 kbps / 16 bit
Рип: and77200




General
Complete name : E:\торрент\Спасти рядового Райана (1998) BDRip - AVC.mkv
Format : Matroska
File size : 3.46 GiB
Duration : 2h 48mn
Overall bit rate : 2 946 Kbps
Encoded date : UTC 2013-02-22 03:54:50
Writing application : mkvmerge v5.7.0 ('The Whirlwind') built on Jul 8 2012 20:08:51
Writing library : libebml v1.2.3 + libmatroska v1.3.0

Video
ID : 1
Format : AVC
Format/Info : Advanced Video Codec
Format profile : High@L4.1
Format settings, CABAC : Yes
Format settings, ReFrames : 5 frames
Muxing mode : Container profile=Unknown@4.1
Codec ID : V_MPEG4/ISO/AVC
Duration : 2h 48mn
Bit rate : 2 439 Kbps
Nominal bit rate : 2 550 Kbps
Width : 1 024 pixels
Height : 552 pixels
Display aspect ratio : 1.862
Frame rate mode : Variable
Frame rate : 23.976 fps
Resolution : 24 bits
Colorimetry : 4:2:0
Scan type : Progressive
Bits/(Pixel*Frame) : 0.180
Stream size : 2.87 GiB (83%)
Writing library : x264 core 124 r2197M 69a0443
Encoding settings : cabac=1 / ref=6 / deblock=1:0:0 / analyse=0x3:0x133 / me=umh / subme=9 / psy=1 / psy_rd=1.00:0.20 / mixed_ref=1 / me_range=16 / chroma_me=1 / trellis=0 / 8x8dct=1 / cqm=0 / deadzone=21,11 / fast_pskip=1 / chroma_qp_offset=-2 / threads=2 / sliced_threads=0 / nr=0 / decimate=1 / interlaced=0 / bluray_compat=0 / constrained_intra=0 / bframes=6 / b_pyramid=1 / b_adapt=0 / b_bias=0 / direct=3 / weightb=1 / open_gop=0 / weightp=0 / keyint=230 / keyint_min=23 / scenecut=40 / intra_refresh=0 / rc_lookahead=40 / rc=abr / mbtree=1 / bitrate=2550 / ratetol=1.0 / qcomp=0.60 / qpmin=10 / qpmax=51 / qpstep=5 / ip_ratio=1.40 / aq=1:1.00

Audio
ID : 2
Format : AC-3
Format/Info : Audio Coding 3
Codec ID : A_AC3
Duration : 2h 48mn
Bit rate mode : Constant
Bit rate : 448 Kbps
Channel(s) : 6 channels
Channel positions : Front: L C R, Surround: L R, LFE
Sampling rate : 48.0 KHz
Stream size : 539 MiB (15%)
Language : Russian

Menu
00:00:00.000 : :Chapter 01
00:03:48.353 : :Chapter 02
00:13:04.992 : :Chapter 03
00:18:14.802 : :Chapter 04
00:26:11.403 : :Chapter 05
00:35:29.710 : :Chapter 06
00:45:05.452 : :Chapter 07
00:56:57.372 : :Chapter 08
01:04:44.255 : :Chapter 09
01:13:03.754 : :Chapter 10
01:16:59.990 : :Chapter 11
01:23:22.998 : :Chapter 12
01:34:47.640 : :Chapter 13
01:46:01.104 : :Chapter 14
01:58:53.459 : :Chapter 15
02:06:43.512 : :Chapter 16
02:16:29.514 : :Chapter 17
02:26:12.305 : :Chapter 18
02:32:00.653 : :Chapter 19
02:41:56.832 : :Chapter 20
Оформление by and77200



Скачать Спасти.рядового.Райана.Saving.Private.Ryan.(Стивен.Спилберг.Steven.Spielberg).[1998.г.боевик.драма.военный.история.BDRip-AVC].[DUB].torrent без регистрации
Золото ЗОЛОТАЯ РАЗДАЧА! СКАЧАННОЕ НЕ ЗАСЧИТЫВАЕТСЯ! Золото
Дата: Зарегистрирован   [ Тип: внутренний ] Как тут cкачать?
MAGNET ссылка
MAGNET ссылка


Скачать .torrent

139 KB

Статус: проверено DHT
Скачан: торрент - 200 раз, раздача полностью - 54 раз
Размер: 3,46 GB
Оценка:  5 (Голосов: 1)
Поблагодарили: 8
Поделиться ссылкой на эту раздачу с друзьями:
В контактеFacebookОдноклассникиTwitterLivejournalМой МирLiveinternet
 

 
Показать сообщения:    


Вы не можете начинать темы
Вы не можете отвечать на сообщения
Вы не можете редактировать свои сообщения
Вы не можете удалять свои сообщения
Вы не можете голосовать в опросах
Вы не можете прикреплять файлы к сообщениям
Вы можете скачивать файлы