Loading...
Error

Скачать Дух мщения / Перехватчик / The Wraith (Майк Марвин) [1986, фантастика, боевик, триллер, мелодрама, BDRip-AVC] [MVO] торрент без регистрации

 
Статистика раздачи
Размер:  2,14 GB   |    Скачан:  121 раз
Сидов:  1  [  0 KB/s  ]  
 
Автор Сообщение

Marsianka

[] 

Информация о фильме
Название: Дух мщения / Перехватчик
Оригинальное название: The Wraith
Год выхода: 1986
Жанр: фантастика, боевик, триллер, мелодрама
Режиссер: Майк Марвин / Mike Marvin
В ролях: Чарли Шин, Ник Кассаветис, Шерилин Фенн, Рэнди Куэйд, Мэттью Бэрри, Дэвид Шерилл, Джэми Бозиан, Клинт Ховард, Гриффин ОНил, Крис Нэш, Стивен Экхольд, Элизабет Кокс, Кристофер Брэдли, Брук Бурк

О фильме: Банда подростков останавливают водителей и заставляют их участвовать в гонках, ставка в которых машина, принадлежащая несчастным, попавшимся им на пути. Молодой парень, погибший от рук этих бандитов, возвращается с того света в виде призрака на черном гоночном автомобиле и начинает мстить за свою смерть, вызывая подонков на дуэль и убивая их одного за одним



Выпущено: США
Продолжительность: 01:32:49
Перевод: Профессиональный (многоголосый, закадровый) CР Digital

Файл
Кодек: x264
Качество: BDRip-AVC- исх. BD Remux
Видео: 1024x552, 29.97fps, 2855kbps
Звук: AC3, 48000Hz, 6ch, 448kbps

Общее
Уникальный идентификатор : 252970139697201550391847435405034853752 (0xBE5046D653A4294B8DE1D7BF95AD1578)
Полное имя : C:UsersveebruarDesktopФильмыThe Wraith.1986.BDRip_AVC[R.G.RealMT] by veebrua.mkv
Формат : Matroska
Версия формата : Version 2
Размер файла : 2,14 Гбайт
Продолжительность : 1 ч. 32 м.
Общий поток : 3304 Кбит/сек
Дата кодирования : UTC 2013-02-19 21:12:48
Программа кодирования : mkvmerge v5.8.0 ('No Sleep / Pillow') built on Sep 2 2012 15:37:04
Библиотека кодирования : libebml v1.2.3 + libmatroska v1.3.0

Видео
Идентификатор : 1
Формат : AVC
Формат/Информация : Advanced Video Codec
Профиль формата : High@L4.1
Параметр CABAC формата : Да
Параметр ReFrames формата : 10 кадров
Идентификатор кодека : V_MPEG4/ISO/AVC
Продолжительность : 1 ч. 32 м.
Битрейт : 2855 Кбит/сек
Ширина : 1024 пикселя
Высота : 552 пикселя
Соотношение сторон : 1,85:1
Режим частоты кадров : Постоянный
Частота кадров : 29,970 кадров/сек
Цветовое пространство : YUV
Субдискретизация насыщенности : 4:2:0
Битовая глубина : 8 бит
Тип развёртки : Прогрессивная
Бит/(Пиксели*Кадры) : 0.169
Размер потока : 1,81 Гбайт (84%)
Библиотека кодирования : x264 core 125 r2208 d9d2288
Настройки программы : cabac=1 / ref=10 / deblock=1:-2:-1 / analyse=0x3:0x113 / me=hex / subme=9 / psy=1 / psy_rd=1.00:0.20 / mixed_ref=1 / me_range=16 / chroma_me=1 / trellis=1 / 8x8dct=1 / cqm=0 / deadzone=21,11 / fast_pskip=1 / chroma_qp_offset=-3 / threads=6 / lookahead_threads=1 / sliced_threads=0 / nr=0 / decimate=0 / interlaced=0 / bluray_compat=0 / constrained_intra=0 / bframes=10 / b_pyramid=2 / b_adapt=1 / b_bias=0 / direct=3 / weightb=1 / open_gop=0 / weightp=2 / keyint=250 / keyint_min=25 / scenecut=40 / intra_refresh=0 / rc_lookahead=40 / rc=2pass / mbtree=1 / bitrate=2855 / ratetol=1.0 / qcomp=0.60 / qpmin=0 / qpmax=51 / qpstep=4 / cplxblur=20.0 / qblur=0.5 / ip_ratio=1.40 / aq=1:1.00
Default : Да
Forced : Нет

Аудио
Идентификатор : 2
Формат : AC-3
Формат/Информация : Audio Coding 3
Расширение режима : CM (complete main)
Параметр Endianness формата : Big
Идентификатор кодека : A_AC3
Продолжительность : 1 ч. 32 м.
Вид битрейта : Постоянный
Битрейт : 448 Кбит/сек
Каналы : 6 каналов
Расположение каналов : Front: L C R, Side: L R, LFE
Частота : 48,0 КГц
Битовая глубина : 16 бит
Метод сжатия : С потерями
Размер потока : 297 Мбайт (14%)
Default : Да
Forced : Нет
Релиз от: R.G.RealMT



Скачать Дух.мщения.Перехватчик.The.Wraith.(Майк.Марвин).[1986.фантастика.боевик.триллер.мелодрама.BDRip-AVC].[MVO].torrent без регистрации
Золото ЗОЛОТАЯ РАЗДАЧА! СКАЧАННОЕ НЕ ЗАСЧИТЫВАЕТСЯ! Золото
Дата: Зарегистрирован   [ Тип: внутренний ] Как тут cкачать?
MAGNET ссылка
MAGNET ссылка


Скачать .torrent

11 KB

Статус: проверено DHT
Скачан: торрент - 121 раз, раздача полностью - 38 раз
Размер: 2,14 GB
Оценка:  5 (Голосов: 2)
Поблагодарили: 4
Поделиться ссылкой на эту раздачу с друзьями:
В контактеFacebookОдноклассникиTwitterLivejournalМой МирLiveinternet
 

 
Показать сообщения:    


Вы не можете начинать темы
Вы не можете отвечать на сообщения
Вы не можете редактировать свои сообщения
Вы не можете удалять свои сообщения
Вы не можете голосовать в опросах
Вы не можете прикреплять файлы к сообщениям
Вы можете скачивать файлы