Loading...
Error

Скачать Филадельфия / Philadelphia (Джонатан Демме) [1993, драма, HDTVRip-AVC] [Dub]+[MVO]x2+[AVO]+[Sub] торрент без регистрации

 
Статистика раздачи
Размер:  4,15 GB   |    Скачан:  108 раз
Сидов:  1  [  0 KB/s  ]  
 
Автор Сообщение

Marsianka

[] 

Информация о фильме
Название: Филадельфия
Оригинальное название: Philadelphia
Год выхода: 1993
Жанр: драма
Режиссер: Джонатан Демме
В ролях: Том Хэнкс, Дензел Вашингтон, Антонио Бандерас, Роберта Максвелл, Базз Килман, Карен Финли, Дэниэл Чэпман, Марк Соренсен мл., Джеффри Уильямсон, Чарльз Гленн, Чандра Уилсон и др.

О фильме: История о человеке (Том Хэнкс), который был прекрасным юристом, хорошим специалистом в своей профессии, и просто добрым парнем. Его карьера стремительно пошла вверх. Жизнь была наполнена счастьем и радостью. Но в один миг все было разрушено. Он узнает, что болен страшной болезнью, от которой нет спасения. Это СПИД Все идет под откос и следующим несчастьем приходит увольнение с работы. Как жить дальше, кому нужен безработный, болен СПИДом, да еще и гей? Но нельзя опускать руки. Тогда Эндрю Бекетт, так зовут этого бедолагу, ищет адвоката, что бы доказать всем: с работы его уволили из-за болезни Джо Миллер (Дензел Вашингтон) хороший семьянин, любящий муж и отец, талантливый адвокат, возьмется ли он за это дело? И что с этого выйдет? Не каждый сыграет больного СПИДом гомосексуалиста, согласитесь. А Том Хэнкс сделал это, сделал «Оскароносно»!!!



Выпущено: Clinica Estetico Ltd., TriStar Pictures, США
Продолжительность: 02:00:21
Перевод: Дублированный (Видеосервис) / Профессиональный, многоголосый (Первый Канал) / Профессиональный, многоголосый (R5) / Авторский, одноголосый (Андрей Гаврилов)

Файл
Кодек: x264
Качество: HDTVRip (AVC)
Видео: MPEG-4 AVC, 3200 Кбит/с, 1024x576, 25.000 кадр/с

Семпл
Общее
Уникальный идентификатор : 177909914348009547745944142076988166529 (0x85D83401492B3996A30274E4D7451181)
Полное имя : D:ТоррентыPhiladelphia.1993.x264.HDTVRip.(AVC)-NovaLan.mkv
Формат : Matroska
Версия формата : Version 2
Размер файла : 4,15 Гбайт
Продолжительность : 2 ч. 0 м.
Общий поток : 4930 Кбит/сек
Название фильма : Релиз от NovaLan (alek7120)
Дата кодирования : UTC 2013-02-23 13:49:25
Программа кодирования : mkvmerge v5.6.0 ('Kenya Kane') built on May 27 2012 16:44:04
Библиотека кодирования : libebml v1.2.3 + libmatroska v1.3.0

Видео
Идентификатор : 1
Формат : AVC
Формат/Информация : Advanced Video Codec
Профиль формата : High@L4.1
Параметр CABAC формата : Да
Параметр ReFrames формата : 8 кадров
Идентификатор кодека : V_MPEG4/ISO/AVC
Продолжительность : 2 ч. 0 м.
Битрейт : 3200 Кбит/сек
Ширина : 1024 пикселя
Высота : 576 пикселей
Соотношение сторон : 16:9
Режим частоты кадров : Постоянный
Частота кадров : 25,000 кадров/сек
Цветовое пространство : YUV
Субдискретизация насыщенности : 4:2:0
Битовая глубина : 8 бит
Тип развёртки : Прогрессивная
Бит/(Пиксели*Кадры) : 0.217
Размер потока : 2,61 Гбайт (63%)
Библиотека кодирования : x264 core 125 r2208 d9d2288
Настройки программы : cabac=1 / ref=8 / deblock=1:-2:-2 / analyse=0x3:0x133 / me=umh / subme=11 / psy=1 / psy_rd=1.00:0.15 / mixed_ref=1 / me_range=48 / chroma_me=0 / trellis=2 / 8x8dct=1 / cqm=0 / deadzone=21,11 / fast_pskip=0 / chroma_qp_offset=-3 / threads=6 / lookahead_threads=1 / sliced_threads=0 / nr=0 / decimate=0 / interlaced=0 / bluray_compat=0 / constrained_intra=0 / bframes=8 / b_pyramid=2 / b_adapt=2 / b_bias=0 / direct=3 / weightb=1 / open_gop=1 / weightp=2 / keyint=250 / keyint_min=25 / scenecut=40 / intra_refresh=0 / rc_lookahead=50 / rc=2pass / mbtree=1 / bitrate=3200 / ratetol=1.0 / qcomp=0.60 / qpmin=0 / qpmax=69 / qpstep=4 / cplxblur=20.0 / qblur=0.5 / ip_ratio=1.40 / aq=1:1.00
Язык : English
Default : Да
Forced : Нет

Аудио #1
Идентификатор : 2
Формат : AC-3
Формат/Информация : Audio Coding 3
Расширение режима : CM (complete main)
Параметр Endianness формата : Big
Идентификатор кодека : A_AC3
Продолжительность : 2 ч. 0 м.
Вид битрейта : Постоянный
Битрейт : 448 Кбит/сек
Каналы : 6 каналов
Расположение каналов : Front: L C R, Side: L R, LFE
Частота : 48,0 КГц
Битовая глубина : 16 бит
Метод сжатия : С потерями
Задержка видео : 28 мс.
Размер потока : 386 Мбайт (9%)
Заголовок : Дублированный (Видеосервис)
Язык : Russian
Default : Да
Forced : Нет

Аудио #2
Идентификатор : 3
Формат : AC-3
Формат/Информация : Audio Coding 3
Расширение режима : CM (complete main)
Параметр Endianness формата : Big
Идентификатор кодека : A_AC3
Продолжительность : 2 ч. 0 м.
Вид битрейта : Постоянный
Битрейт : 192 Кбит/сек
Каналы : 2 канала
Расположение каналов : Front: L R
Частота : 48,0 КГц
Битовая глубина : 16 бит
Метод сжатия : С потерями
Размер потока : 165 Мбайт (4%)
Заголовок : Профессиональный многоголосый (Первый Канал)
Язык : Russian
Default : Нет
Forced : Нет

Аудио #3
Идентификатор : 4
Формат : AC-3
Формат/Информация : Audio Coding 3
Профиль формата : Dolby Digital
Расширение режима : CM (complete main)
Параметр Endianness формата : Big
Идентификатор кодека : A_AC3
Продолжительность : 2 ч. 0 м.
Вид битрейта : Постоянный
Битрейт : 192 Кбит/сек
Каналы : 2 канала
Расположение каналов : Front: L R
Частота : 48,0 КГц
Битовая глубина : 16 бит
Метод сжатия : С потерями
Размер потока : 165 Мбайт (4%)
Заголовок : Профессиональный многоголосый (R5)
Язык : Russian
Default : Нет
Forced : Нет

Аудио #4
Идентификатор : 5
Формат : AC-3
Формат/Информация : Audio Coding 3
Расширение режима : CM (complete main)
Параметр Endianness формата : Big
Идентификатор кодека : A_AC3
Продолжительность : 2 ч. 0 м.
Вид битрейта : Постоянный
Битрейт : 448 Кбит/сек
Каналы : 6 каналов
Расположение каналов : Front: L C R, Side: L R, LFE
Частота : 48,0 КГц
Битовая глубина : 16 бит
Метод сжатия : С потерями
Задержка видео : 28 мс.
Размер потока : 386 Мбайт (9%)
Заголовок : Авторский одноголосый (Андрей Гаврилов)
Язык : Russian
Default : Нет
Forced : Нет

Аудио #5
Идентификатор : 6
Формат : AC-3
Формат/Информация : Audio Coding 3
Расширение режима : CM (complete main)
Параметр Endianness формата : Big
Идентификатор кодека : A_AC3
Продолжительность : 2 ч. 0 м.
Вид битрейта : Постоянный
Битрейт : 448 Кбит/сек
Каналы : 6 каналов
Расположение каналов : Front: L C R, Side: L R, LFE
Частота : 48,0 КГц
Битовая глубина : 16 бит
Метод сжатия : С потерями
Задержка видео : 28 мс.
Размер потока : 386 Мбайт (9%)
Заголовок : Оригинал (английский)
Язык : English
Default : Нет
Forced : Нет

Текст
Идентификатор : 7
Формат : UTF-8
Идентификатор кодека : S_TEXT/UTF8
Идентификатор кодека/Информация : UTF-8 Plain Text
Заголовок : Русские
Язык : Russian
Default : Да
Forced : Нет
Аудио#1: Russian: (AC3, 6 ch, 448 Кбит/c) - Дублированный (Видеосервис);
Аудио#2: Russian: (АС3, 2 ch, 192 Кбит/с) - закадровый (многоголосый) (Первый Канал);
Аудио#3: Russian: (АС3, 2 ch, 192 Кбит/с) - закадровый (многоголосый) (R5);
Аудио#4: Russian: (AC3, 6 ch, 448 Кбит/c) - закадровый (одноголосый, А. Гаврилов);
Аудио#5: English: (AC3, 6 ch, 448 Кбит/c)
Субтитры: Русские
Релиз от:
Автор рипа:



Скачать Филадельфия.Philadelphia.(Джонатан.Демме).[1993.драма.HDTVRip-AVC].[Dub]+[MVO]x2+[AVO]+[Sub].torrent без регистрации
Золото ЗОЛОТАЯ РАЗДАЧА! СКАЧАННОЕ НЕ ЗАСЧИТЫВАЕТСЯ! Золото
Дата: Зарегистрирован   [ Тип: внутренний ] Как тут cкачать?
MAGNET ссылка
MAGNET ссылка


Скачать .torrent

11 KB

Статус: проверено DHT
Скачан: торрент - 108 раз, раздача полностью - 9 раз
Размер: 4,15 GB
Оценка:  - (Голосов: 0)
Поблагодарили: 0
Поделиться ссылкой на эту раздачу с друзьями:
В контактеFacebookОдноклассникиTwitterLivejournalМой МирLiveinternet
 

 
Показать сообщения:    


Вы не можете начинать темы
Вы не можете отвечать на сообщения
Вы не можете редактировать свои сообщения
Вы не можете удалять свои сообщения
Вы не можете голосовать в опросах
Вы не можете прикреплять файлы к сообщениям
Вы можете скачивать файлы