Loading...
Error

Скачать Пес-призрак: Путь самурая / Ghost Dog: The Way of the Samurai (Джим Джармуш) [1999, триллер, драма, криминал, BDRip-AVC] [AVO] торрент без регистрации

 
Статистика раздачи
Размер:  3,03 GB   |    Скачан:  109 раз
Сидов:  1  [  0 KB/s  ]  
 
Автор Сообщение

Marsianka

[] 

Информация о фильме
Название: Пес-призрак: Путь самурая
Оригинальное название: Ghost Dog: The Way of the Samurai
Год выхода: 1999
Жанр: триллер, драма, криминал
Режиссер: Джим Джармуш
В ролях: Форест Уитакер, Джон Торми, Клифф Гормен, Генри Сильва, Исаак Де Банколе, Триша Весси, Виктор Арго, Джин Руффини, Ричард Портноу, Камилла Уинбуш

О фильме:
«Пес-призрак» загадочный воин, подчинивший свою жизнь древним законам чести Самураев. Он безропотно служит своему хозяину, когда-то спасшему ему жизнь. Презирая опасность, и, не думая о собственной судьбе, таинственный убийца-одиночка убирает с дороги врагов своего господина. Но его хозяин преследует далеко не благородные цели Мелкий мафиози ради спасения своей жизни отправляет Пса-Призрака в неравную битву с целым преступным синдикатом...



Страна: Германия, США, Франция, Япония, Bac Films, Canal+ [fr], Degeto Film, JVC Entertainment, Pandora Filmproduktion GmbH, Arbeitsgemeinschaft der offentlich-rechtlichen Rundfunkanstalten der Bundesrepublik Deutschland, Plywood Productions
Продолжительность: 01:51:13
Перевод: Авторский одноголосый (Д. Пучков Goblin, ненормативная лексика)
Дата релиза: 25.02.2013

Файл
Кодек: H.264
Качество: BDRip-AVC
Видео: MPEG-4 AVC, 3000 Кбит/с, 1024x576, 25.000 кадр/с
Звук: Русский (AC3, 6 ch, 448 Кбит/с), английский (AC3, 6 ch, 448 Кбит/с)
Общее
Уникальный идентификатор : 174595165709252868054913494802968615041 (0x8359CE477F7128F586140F2D5CB41881)
Полное имя : D:1Pes.prizrak.Put.samuraja.1999.x264.BDRip.(AVC).ExKinoRay.mkv
Формат : Matroska
Версия формата : Version 2
Размер файла : 3,03 Гбайт
Продолжительность : 1 ч. 51 м.
Общий поток : 3895 Кбит/сек
Название фильма : Pes.prizrak.Put.samuraja.1999.x264.BDRip.(AVC).ExKinoRay
Дата кодирования : UTC 2013-02-24 19:45:48
Программа кодирования : mkvmerge v4.0.0 ('The Stars were mine') сборка от Jun 6 2010 16:18:42
Библиотека кодирования : libebml v1.0.0 + libmatroska v1.0.0

Видео
Идентификатор : 1
Формат : AVC
Формат/Информация : Advanced Video Codec
Профиль формата : High@L4.1
Параметр CABAC формата : Да
Параметр ReFrames формата : 8 кадров
Идентификатор кодека : V_MPEG4/ISO/AVC
Продолжительность : 1 ч. 51 м.
Битрейт : 3000 Кбит/сек
Ширина : 1024 пикселя
Высота : 576 пикселей
Соотношение сторон : 16:9
Частота кадров : 25,000 кадров/сек
Цветовое пространство : YUV
Субдискретизация насыщенности : 4:2:0
Битовая глубина : 8 бит
Тип развёртки : Прогрессивная
Бит/(Пиксели*Кадры) : 0.203
Размер потока : 2,27 Гбайт (75%)
Заголовок : Rip by Enigma-Vladislav71
Библиотека кодирования : x264 core 129 r2245 bc13772
Настройки программы : cabac=1 / ref=8 / deblock=1:-2:-2 / analyse=0x3:0x133 / me=umh / subme=11 / psy=1 / psy_rd=1.00:0.00 / mixed_ref=1 / me_range=48 / chroma_me=1 / trellis=2 / 8x8dct=1 / cqm=0 / deadzone=21,11 / fast_pskip=0 / chroma_qp_offset=-2 / threads=3 / lookahead_threads=1 / sliced_threads=0 / nr=0 / decimate=0 / interlaced=0 / bluray_compat=0 / constrained_intra=0 / bframes=8 / b_pyramid=2 / b_adapt=2 / b_bias=0 / direct=3 / weightb=1 / open_gop=0 / weightp=2 / keyint=250 / keyint_min=25 / scenecut=40 / intra_refresh=0 / rc_lookahead=40 / rc=2pass / mbtree=1 / bitrate=3000 / ratetol=1.0 / qcomp=0.60 / qpmin=10 / qpmax=51 / qpstep=4 / cplxblur=20.0 / qblur=0.5 / ip_ratio=1.40 / aq=2:1.00
Язык : English

Аудио #1
Идентификатор : 2
Формат : AC-3
Формат/Информация : Audio Coding 3
Расширение режима : CM (complete main)
Идентификатор кодека : A_AC3
Продолжительность : 1 ч. 51 м.
Вид битрейта : Постоянный
Битрейт : 448 Кбит/сек
Каналы : 6 каналов
Расположение каналов : Front: L C R, Side: L R, LFE
Частота : 48,0 КГц
Битовая глубина : 16 бит
Метод сжатия : С потерями
Размер потока : 356 Мбайт (12%)
Заголовок : Пучков
Язык : Russian

Аудио #2
Идентификатор : 3
Формат : AC-3
Формат/Информация : Audio Coding 3
Расширение режима : CM (complete main)
Идентификатор кодека : A_AC3
Продолжительность : 1 ч. 51 м.
Вид битрейта : Постоянный
Битрейт : 448 Кбит/сек
Каналы : 6 каналов
Расположение каналов : Front: L C R, Side: L R, LFE
Частота : 48,0 КГц
Битовая глубина : 16 бит
Метод сжатия : С потерями
Размер потока : 356 Мбайт (12%)
Заголовок : английский
Язык : English

Меню
00:00:00.000 : en:Chapter 01
00:09:58.480 : en:Chapter 02
00:16:03.480 : en:Chapter 03
00:24:11.360 : en:Chapter 04
00:33:34.719 : en:Chapter 05
00:45:17.200 : en:Chapter 06
00:53:04.800 : en:Chapter 07
01:04:34.960 : en:Chapter 08
01:12:53.040 : en:Chapter 09
01:19:30.000 : en:Chapter 10
01:27:11.840 : en:Chapter 11
01:40:08.280 : en:Chapter 12
01:51:12.600 : en:Chapter 13
Семпл Релиз от:

Авторы релиза:



Скачать Пес-призрак.Путь.самурая.Ghost.Dog.The.Way.of.the.Samurai.(Джим.Джармуш).[1999.триллер.драма.криминал.BDRip-AVC].[AVO].torrent без регистрации
Золото ЗОЛОТАЯ РАЗДАЧА! СКАЧАННОЕ НЕ ЗАСЧИТЫВАЕТСЯ! Золото
Дата: Зарегистрирован   [ Тип: внутренний ] Как тут cкачать?
MAGNET ссылка
MAGNET ссылка


Скачать .torrent

16 KB

Статус: проверено DHT
Скачан: торрент - 109 раз, раздача полностью - 15 раз
Размер: 3,03 GB
Оценка:  - (Голосов: 0)
Поблагодарили: 0
Поделиться ссылкой на эту раздачу с друзьями:
В контактеFacebookОдноклассникиTwitterLivejournalМой МирLiveinternet
 

 
Показать сообщения:    


Вы не можете начинать темы
Вы не можете отвечать на сообщения
Вы не можете редактировать свои сообщения
Вы не можете удалять свои сообщения
Вы не можете голосовать в опросах
Вы не можете прикреплять файлы к сообщениям
Вы можете скачивать файлы