Loading...
Error

Скачать Гранд Отель / Gran Hotel (сезон 02) (Карлос Седес, Сильвия Квир, Хорхе Санчес-Кабесудо) [2012, драма, HDTVRip] [720p] [MVO (DreamRecords)] торрент без регистрации

 
Статистика раздачи
Размер:  16,88 GB   |    Скачан:  144 раза
Сидов:  1  [  0 KB/s  ]  
 
Автор Сообщение

МихаНЕзатор

[] 

Название: Гранд Отель
Оригинальное название: Gran Hotel
Год выпуска: 2012
Страна: Испания
Жанр: Драма
Продолжительность: 08 х ~ 01:15:00
Перевод: Профессиональный (многоголосый закадровый) - DreamRecords
Субтитры: Русские
Режиссер: Карлос Седес, Сильвия Квир, Хорхе Санчес-Кабесудо

В ролях: Йон Гонсалес (Хулио Ольмедо), Амайя Саламанка (Алисия Аларкон), Адриана Осорес (донья Тереса), Педро Алонсо (Диего), Элой Асорин (Хавьер Аларкон), Феле Мартинес (Альфредо Вергара), Иван Моралес (Себастьян)

Описание: Действие происходит в 1905 году. Молодой человек Хулио приезжает в идиллическое место Гранд отель, где он намерен выяснить причины исчезновение своей сестры. Но на пути его расследования встретится Алисия Аларкон, член семьи владельца отеля, и которая станет единственным человеком, готовым помочь ему раскрыть правду. Между ними начнется невозможная история любви. Им мешает то обстоятельство, что Алисия помолвлена с Диего, амбициозным юношей, который готов на всё, чтобы стать директором Гранд Отеля

Перевод: Дарья Селиверстова
Озвучка: Михаил Суслов, Владимир Чистохин, Светлана Чистохина, Мила Мирелли
Работа со звуком: Алексей Фокин

Релиз от:

Качество: HDTV 720p
Формат: МКV
Видео: MPEG-4 AVC, ~ 3500 Кбит/с, 1280x720
Аудио: MP3, 2 ch, 192 Кбит/с - Русский
Аудио: AC3, 2 ch, 192 Кбит/с - Испанский

Добавлена 08-ая серия. Сезон полностью.
в 04-ой серии первой дорожкой идет испанская просьба переключать на русскую.

01. Свет и тени / Luces y sombras
02. Плач в ночи / Un llanto en la noche
03. Секрет / El secreto
04. Из прошлого / Retorno al pasado
05. Сесилия / Cecilia
06. Годовщина / El aniversario
07. Крещение / El bautizo
08. El camarografo / Кинооператор
General
Unique ID : 226838842589504794028145887470812184903 (0xAAA7926B456665E29A42B285C620C147)
Complete name : D:Cinemagran 22x01 - Luces y sombras (Свет и тени).mkv
Format : Matroska
Format version : Version 2
File size : 2.12 GiB
Duration : 1h 18mn
Overall bit rate : 3 886 Kbps
Encoded date : UTC 2012-11-30 08:36:33
Writing application : mkvmerge v5.5.0 ('Healer') built on Apr 6 2012 21:43:24
Writing library : libebml v1.2.3 + libmatroska v1.3.0

Video
ID : 1
Format : AVC
Format/Info : Advanced Video Codec
Format profile : High@L4.1
Format settings, CABAC : Yes
Format settings, ReFrames : 4 frames
Codec ID : V_MPEG4/ISO/AVC
Duration : 1h 18mn
Bit rate : 3 501 Kbps
Width : 1 280 pixels
Height : 720 pixels
Display aspect ratio : 16:9
Frame rate mode : Constant
Frame rate : 25.000 fps
Color space : YUV
Chroma subsampling : 4:2:0
Bit depth : 8 bits
Scan type : Progressive
Bits/(Pixel*Frame) : 0.152
Stream size : 1.87 GiB (88%)
Title : Гранд Отель. Сезон 2 / Gran Hotel. Temporada 2 (2012)
Writing library : x264 core 119 r2106 07efeb4
Encoding settings : cabac=1 / ref=3 / deblock=1:0:0 / analyse=0x3:0x113 / me=hex / subme=7 / psy=1 / psy_rd=1.00:0.00 / mixed_ref=1 / me_range=16 / chroma_me=1 / trellis=1 / 8x8dct=1 / cqm=0 / deadzone=21,11 / fast_pskip=1 / chroma_qp_offset=-2 / threads=6 / sliced_threads=0 / nr=0 / decimate=1 / interlaced=0 / bluray_compat=0 / constrained_intra=0 / bframes=3 / b_pyramid=2 / b_adapt=1 / b_bias=0 / direct=1 / weightb=1 / open_gop=0 / weightp=2 / keyint=250 / keyint_min=25 / scenecut=40 / intra_refresh=0 / rc_lookahead=40 / rc=abr / mbtree=1 / bitrate=3501 / ratetol=1.0 / qcomp=0.60 / qpmin=0 / qpmax=69 / qpstep=4 / ip_ratio=1.40 / aq=1:1.00
Language : Spanish
Default : Yes
Forced : No

Audio #1
ID : 2
Format : AC-3
Format/Info : Audio Coding 3
Mode extension : CM (complete main)
Format settings, Endianness : Big
Muxing mode : Header stripping
Codec ID : A_AC3
Duration : 1h 18mn
Bit rate mode : Constant
Bit rate : 192 Kbps
Channel(s) : 2 channels
Channel positions : Front: L R
Sampling rate : 48.0 KHz
Bit depth : 16 bits
Compression mode : Lossy
Stream size : 107 MiB (5%)
Language : Spanish
Default : No
Forced : No

Audio #2
ID : 4
Format : MPEG Audio
Format version : Version 1
Format profile : Layer 3
Mode : Joint stereo
Muxing mode : Header stripping
Codec ID : A_MPEG/L3
Codec ID/Hint : MP3
Duration : 1h 18mn
Bit rate mode : Constant
Bit rate : 192 Kbps
Channel(s) : 2 channels
Sampling rate : 48.0 KHz
Compression mode : Lossy
Stream size : 107 MiB (5%)
Language : Russian
Default : Yes
Forced : No

Text
ID : 3
Format : UTF-8
Codec ID : S_TEXT/UTF8
Codec ID/Info : UTF-8 Plain Text
Title : notabenoid.com / Переводчики: amable, premudraia, KARINA86, kami_kadze, shokkolattka
Language : Russian
Default : Yes
Forced : No



Скачать Гранд.Отель.Gran.Hotel.(сезон.02).(Карлос.Седес.Сильвия.Квир.Хорхе.Санчес-Кабесудо).[2012.драма.HDTVRip].[720p].[MVO.(DreamRecords)].torrent без регистрации
Золото ЗОЛОТАЯ РАЗДАЧА! СКАЧАННОЕ НЕ ЗАСЧИТЫВАЕТСЯ! Золото
Дата: Зарегистрирован   [ Тип: внутренний ] Как тут cкачать?
MAGNET ссылка
MAGNET ссылка


Скачать .torrent

43 KB

Статус: проверено DHT
Скачан: торрент - 144 раз, раздача полностью - 11 раз
Размер: 16,88 GB
Оценка:  - (Голосов: 0)
Поблагодарили: 1
Поделиться ссылкой на эту раздачу с друзьями:
В контактеFacebookОдноклассникиTwitterLivejournalМой МирLiveinternet
 

 
Показать сообщения:    


Вы не можете начинать темы
Вы не можете отвечать на сообщения
Вы не можете редактировать свои сообщения
Вы не можете удалять свои сообщения
Вы не можете голосовать в опросах
Вы не можете прикреплять файлы к сообщениям
Вы можете скачивать файлы