Loading...
Error

Скачать Волшебный змей / Kairyu daikessen (Тэцуя Ямаути) [1966, самурайский боевик, фэнтази, VHSRip] [AVO] торрент без регистрации

 
Статистика раздачи
Размер:  1,45 GB   |    Скачан:  113 раз
Сидов:  1  [  0 KB/s  ]  
 
Автор Сообщение

Marsianka

[] 

Информация о фильме
Название: Волшебный змей
Оригинальное название: Kairyu daikessen
Год выхода: 1966
Жанр: самурайский боевик, фэнтази
Режиссер: Тэцуя Ямаути
В ролях: Хироки Мацуката, Томоко Огава, Рютаро Отомо, Бин Аматсу, Нобуо Канэко, Идзуми Хара, Кэнсаку Хара, Масатака Ивао, Сэйдзо Фукумото, Акира Сиодзи

О фильме:
Сюжет фильма начинается с дворцового переворота в некоем княжестве Оуми, в ходе которого вельможа Дайдзо Юки и его преданный ниндзя-маг Оротимару убивают князя Огату и всю его семью. Преданные погибшему князю слуги спасают княжеского сына Икадзути и пытаются сбежать на лодке, но злой ниндзя превращается в гигантского морского змея и преследует их на воде. От клыков чудовища юного Икадзути спасает волшебник Додзин Хики. Он берет мальчика к себе на воспитание и с годами делает из него настоящего ниндзя-мага. Додзин даже раскрывает парню тайну превращения в животных и рассказывает при этом, что единственным его учеником, который постиг эту технику, был предатель Оротимару.
Легенды не рождаются на пустом месте, и сага про Люка Скайуокера не исключение. Уже почти тридцать лет тысячи фанатов «Звездных войн» готовы целыми сутками копаться в старых книгах и на пыльных стеллажах видеопрокатов, чтобы обнаружить первые ростки любимого мифа.
«Волшебный змей» один из таких ростков. Сказочный фильм ветерана студии «Toei» Тэцуя Ямаути был снят в эпоху, когда каждая уважающая себя кинокомпания стремилась выпустить собственную картину про гигантских чудовищ. В фильме Ямаути чудовищ было целых два, но в историю кино режиссер попал вовсе не из-за них.
Принято считать, что «Волшебного змея» зрители уважают по сей день только из-за сильных джедайских аллюзий. Смотрят и довольно улыбаются: «Все свои идеи Джордж Лукас украл именно из этого фильма».
И трудно в это не поверить, когда видишь на экране примерно следующую сцену. Старик боевой маг провожает в путь молодого ученика.
Твое обучение закончено, молодой воин, но ты не должен забывать главный жизненный принцип: великая сила всегда нуждается в великой ответственности.
Я буду помнить об этом, учитель.
До тебя у меня был другой воспитанник, но он давно перешел на сторону Зла. Между прочим, он убил и твоего отца. Не забывай об этом.
Джордж Лукас никогда не говорил о своем отношении к фильму Ямаути. Нас, впрочем, сейчас интересует тот факт, что легенды не рождаются на пустом месте. Не секрет, что в основу сценария Масару Игами легла японская народная сказка, известная как «Повесть о Дзирае Гокэцу».



Страна: Япония
Продолжительность: 01:24:29
Перевод: Авторский (одноголосый) Кузнецов

Файл
Кодек: XviD
Качество: VHSRip
Видео: Разрешение: 720x528. Кадров в секунду: 23,98. Битрейт: 2263 Kbps. Фактор качества: 0,25 b/px.
Звук: ATSC/A-52 Dolby AC3. каналов : 2. Частота дискретизации: 48000 Hz. Битрейт: 192 Kbps.
Субтитры: Нет
Формат : AVI
Формат/Информация : Audio Video Interleave
Размер файла : 1,45 Гбайт
Продолжительность : 1 ч. 24 м.
Общий поток : 2455 Кбит/сек
Программа кодирования : VirtualDubMod 1.5.10.2 (build 2540/release)
Библиотека кодирования : VirtualDubMod build 2540/release

Видео
Идентификатор : 0
Формат : MPEG-4 Visual
Профиль формата : Advanced Simple@L5
Параметр BVOP формата : 1
Параметр QPel формата : Нет
Параметр GMC формата : Без точки перехода
Параметр матрицы формата : Default (H.263)
Идентификатор кодека : XVID
Идентификатор кодека/Подсказка : XviD
Продолжительность : 1 ч. 24 м.
Битрейт : 2254 Кбит/сек
Ширина : 720 пикселей
Высота : 528 пикселей
Соотношение сторон : 4:3
Частота кадров : 23,976 кадра/сек
Цветовое пространство : YUV
Субдискретизация насыщенности : 4:2:0
Битовая глубина : 8 бит
Тип развёртки : Прогрессивная
Метод сжатия : С потерями
Бит/(Пиксели*Кадры) : 0.247
Размер потока : 1,33 Гбайт (92%)
Библиотека кодирования : XviD 1.2.0.dev47 (UTC 2006-11-01)

Аудио
Идентификатор : 1
Формат : AC-3
Формат/Информация : Audio Coding 3
Расширение режима : CM (complete main)
Параметр Endianness формата : Big
Идентификатор кодека : 2000
Продолжительность : 1 ч. 24 м.
Вид битрейта : Постоянный
Битрейт : 192 Кбит/сек
Каналы : 2 канала
Расположение каналов : Front: L R
Частота : 48,0 КГц
Битовая глубина : 16 бит
Метод сжатия : С потерями
Размер потока : 116 Мбайт (8%)
Выравнивание : Разделение по промежуткам
Продолжительность промежутка : 42 мс. (1,00 видеокадр)
Время предзагрузки промежутка : 500 мс.



Скачать Волшебный.змей.Kairyu.daikessen.(Тэцуя.Ямаути).[1966.самурайский.боевик.фэнтази.VHSRip].[AVO].torrent без регистрации
Золото ЗОЛОТАЯ РАЗДАЧА! СКАЧАННОЕ НЕ ЗАСЧИТЫВАЕТСЯ! Золото
Дата: Зарегистрирован   [ Тип: внутренний ] Как тут cкачать?
MAGNET ссылка
MAGNET ссылка


Скачать .torrent

15 KB

Статус: проверено DHT
Скачан: торрент - 113 раз, раздача полностью - 4 раз
Размер: 1,45 GB
Оценка:  - (Голосов: 0)
Поблагодарили: 0
Поделиться ссылкой на эту раздачу с друзьями:
В контактеFacebookОдноклассникиTwitterLivejournalМой МирLiveinternet
 

 
Показать сообщения:    


Вы не можете начинать темы
Вы не можете отвечать на сообщения
Вы не можете редактировать свои сообщения
Вы не можете удалять свои сообщения
Вы не можете голосовать в опросах
Вы не можете прикреплять файлы к сообщениям
Вы можете скачивать файлы