Loading...
Error

Скачать Золото сёгуна / Goy¤kin (Хидэо Гося) [1969, самурайская драма, DVDRip] [DVO] торрент без регистрации

 
Статистика раздачи
Размер:  1,46 GB   |    Скачан:  111 раз
Сидов:  1  [  0 KB/s  ]  
 
Автор Сообщение

Marsianka

[] 

Информация о фильме
Название: Золото сёгуна
Оригинальное название: Goy¤kin
Год выхода: 1969
Жанр: самурайская драма
Режиссер: Хидэо Гося
В ролях: Тацуя Накадаи, Тэцуро Тамба, Рурико Асаока, Ёко Цукаса, Исао Натсуяги, Бэн Хиура, Ко Нишимура, Шинго Осава, Хисаси Игава, Сусуму Куробе, Кендзиро Хошино, Хайме Араки, Куниэ Танака, Эйдзиро Тоно

О фильме:
Клан самурая Магобэя (Накадаи) живет на холодном снежном острове. У клана большие финансовые проблемы, и чтобы решить их, казначей клана (Тамба) решил заняться пиратством - захватил золото с корабля сегуна, проплывавшего мимо. А исполнителей - простых рыбаков - убрали, чтобы сегунат ничего не узнал. Магобэй не считает, что цель оправдывает средства, и не может смириться с гибелью рыбаков. Но и открыто выступить против интересов клана он не может - ему мешают верность и долг. Поэтому он покидает клан и влачит жалкую жизнь ронина, пока не узнает что преступление планируется вновь. На этот раз он должен вернуться - и спасти рыбаков.

на самом деле жителей деревни по слухам забрали не "боги" (как звучит в переводе), а "тэнгу" (см. статью http://ru.wikipedia.org/wiki/Тэнгу ). И один из видов тэнгу похож на ворона: "Карасу тэнгу. Котэнгу, «ворон» тэнгу, младший тэнгу. Древняя форма тэнгу, изображаемый как злое, похожее на ворону существо. Обладал телом человека, крючковатым лицом, маленькой головой, крыльями и когтями. Похищает взрослых и детей, разжигает пожары. Разрывает на части тех, кто преднамеренно наносит вред лесу. Иногда карасу тэнгу освобождает похищенных им людей, но, оставшись в живых, они возвращались домой слабоумными". Именно по этой причине в фильме так часто появляются вороны, создавая неповторимую атмосферу этого шедевра кинематографии.
Страна: Япония
Студия: Toho Company Ltd.
Продолжительность: 02:02:54
Перевод: Профессиональный (двухголосый)

Файл
Кодек: XviD
Качество: DVDRip
Видео: 1 504 Kbps, 640 x 280 (2.286), 25.000 fps
Звук: MPEG-1 Audio layer 3, 192 Kbps, 2 channels, 48.0 KHz
Субтитры: Нет
Формат : AVI
Формат/Информация : Audio Video Interleave
Размер файла : 1,46 Гбайт
Продолжительность : 2 ч. 2 м.
Общий поток : 1706 Кбит/сек
Программа кодирования : VirtualDubMod 1.5.10.2 (build 2540/release)
Библиотека кодирования : VirtualDub build 31536/release

Видео
Идентификатор : 0
Формат : MPEG-4 Visual
Профиль формата : Advanced Simple@L5
Параметр BVOP формата : 1
Параметр QPel формата : Нет
Параметр GMC формата : Без точки перехода
Параметр матрицы формата : Default (MPEG)
Идентификатор кодека : XVID
Идентификатор кодека/Подсказка : XviD
Продолжительность : 2 ч. 2 м.
Битрейт : 1504 Кбит/сек
Ширина : 640 пикселей
Высота : 280 пикселей
Соотношение сторон : 2,25:1
Частота кадров : 25,000 кадров/сек
Цветовое пространство : YUV
Субдискретизация насыщенности : 4:2:0
Битовая глубина : 8 бит
Тип развёртки : Прогрессивная
Метод сжатия : С потерями
Бит/(Пиксели*Кадры) : 0.336
Размер потока : 1,29 Гбайт (88%)
Библиотека кодирования : XviD 1.2.0.dev47 (UTC 2006-11-01)

Аудио
Идентификатор : 1
Формат : MPEG Audio
Версия формата : Version 1
Профиль формата : Layer 3
Режим : Joint stereo
Идентификатор кодека : 55
Идентификатор кодека/Подсказка : MP3
Продолжительность : 2 ч. 2 м.
Вид битрейта : Постоянный
Битрейт : 192 Кбит/сек
Каналы : 2 канала
Частота : 48,0 КГц
Метод сжатия : С потерями
Размер потока : 169 Мбайт (11%)
Выравнивание : Разделение по промежуткам
Продолжительность промежутка : 40 мс. (1,00 видеокадр)
Время предзагрузки промежутка : 500 мс.



Скачать Золото.сёгуна.Goy¤kin.(Хидэо.Гося).[1969.самурайская.драма.DVDRip].[DVO].torrent без регистрации
Золото ЗОЛОТАЯ РАЗДАЧА! СКАЧАННОЕ НЕ ЗАСЧИТЫВАЕТСЯ! Золото
Дата: Зарегистрирован   [ Тип: внутренний ] Как тут cкачать?
MAGNET ссылка
MAGNET ссылка


Скачать .torrent

15 KB

Статус: проверено DHT
Скачан: торрент - 111 раз, раздача полностью - 14 раз
Размер: 1,46 GB
Оценка:  - (Голосов: 0)
Поблагодарили: 0
Поделиться ссылкой на эту раздачу с друзьями:
В контактеFacebookОдноклассникиTwitterLivejournalМой МирLiveinternet
 

 
Показать сообщения:    


Вы не можете начинать темы
Вы не можете отвечать на сообщения
Вы не можете редактировать свои сообщения
Вы не можете удалять свои сообщения
Вы не можете голосовать в опросах
Вы не можете прикреплять файлы к сообщениям
Вы можете скачивать файлы