Loading...
Error

Скачать Коэффициент интеллекта / I.Q. (Фред Скепси) [1994, мелодрама, комедия, ..., HDTVRip-AVC] [MVO]+[AVO]+[Sub] торрент без регистрации

 
Статистика раздачи
Размер:  2,03 GB   |    Скачан:  111 раз
Сидов:  1  [  0 KB/s  ]  
 
Автор Сообщение

Marsianka

[] 

Информация о фильме
Название: Коэффициент интеллекта
Оригинальное название: I.Q.
Год выхода: 1994
Режиссер: Фред Скепси
В ролях: Тим Роббинс, Мег Райан, Уолтер Мэттау, Чарльз Дернинг, Стивен Фрай, Лу Джейкоби, Джозеф Махер, Джин Сэкс, Фрэнк Уэйли, Тони Шалхоуб

О фильме:
В роли свахи выступает сам Альберт Эйнштейн. В его племянницу влюбился простой механик, очень симпатичный парень. А племянница обручена с занудным и неприятным ученым. Эйнштейн хочет, чтобы она была с механиком, который лихо прокатил его на мотоцикле. Для того, чтобы она обратила на него внимание, он открыл ему формулу холодного термоядерного синтеза для ракетных двигателей, и тот произвел сенсацию во всем мире. Но долго такой обман длиться не может. Сохранится ли любовь после разоблачения?



Страна: США
Студия: Paramount Pictures, Sandollar
Продолжительность: 01:35:41
Перевод: Профессиональный (многоголосый закадровый), авторский (одноголосый закадровый)

Файл
Кодек: h.264
Качество: HDTVRip-AVC
Видео: MPEG-4 AVC, 2267 Кбит/с, 1024x432, 23.976 кадр/с

Звук:
1: Русский (AC3, 2 ch, 192 Кбит/с) Профессиональный многоголосый
2: Русский (AC3, 2 ch, 192 Кбит/с) Авторский одноголосый [Андрей Гаврилов]
3: Английский (AC3, 6 ch, 384 Кбит/с)

Субтитры: Русские, английские

Полное имя : Koefficient.intelekta.1994.x264.HDTVRip.(AVC).0ptimus.mkv
Формат : Matroska
Версия формата : Version 4 / Version 2
Размер файла : 2,03 Гбайт
Продолжительность : 1 ч. 35 м.
Общий поток : 3037 Кбит/сек
Название фильма : Коэффициент интеллекта | I.Q. [1994] -=HDTVRip (AVC) by 0ptimus=-
Дата кодирования : UTC 2013-02-26 08:26:29
Программа кодирования : mkvmerge v6.0.0 ('Coming Up For Air') built on Jan 20 2013 09:52:00
Библиотека кодирования : libebml v1.3.0 + libmatroska v1.4.0

Видео
Идентификатор : 1
Формат : AVC
Формат/Информация : Advanced Video Codec
Профиль формата : High@L4.1
Параметр CABAC формата : Да
Параметр ReFrames формата : 8 кадров
Идентификатор кодека : V_MPEG4/ISO/AVC
Битрейт : 2267 Кбит/сек
Ширина : 1024 пикселя
Высота : 432 пикселя
Соотношение сторон : 2,40:1
Режим частоты кадров : Переменный
Частота кадров в оригинале : 23,976 кадра/сек
Цветовое пространство : YUV
Субдискретизация насыщенности : 4:2:0
Битовая глубина : 8 бит
Тип развёртки : Прогрессивная
Бит/(Пиксели*Кадры) : 0.214
Заголовок : Rip by 0ptimus
Библиотека кодирования : x264 core 129 r2245 bc13772
Настройки программы : cabac=1 / ref=8 / deblock=1:-3:-2 / analyse=0x3:0x113 / me=umh / subme=10 / psy=1 / psy_rd=1.00:0.20 / mixed_ref=1 / me_range=32 / chroma_me=1 / trellis=2 / 8x8dct=1 / cqm=0 / deadzone=21,11 / fast_pskip=0 / chroma_qp_offset=-3 / threads=3 / lookahead_threads=1 / sliced_threads=0 / nr=0 / decimate=0 / interlaced=0 / bluray_compat=0 / constrained_intra=0 / bframes=6 / b_pyramid=2 / b_adapt=2 / b_bias=0 / direct=3 / weightb=1 / open_gop=0 / weightp=2 / keyint=250 / keyint_min=23 / scenecut=40 / intra_refresh=0 / rc_lookahead=40 / rc=2pass / mbtree=0 / bitrate=2267 / ratetol=1.0 / qcomp=0.60 / qpmin=0 / qpmax=69 / qpstep=4 / cplxblur=20.0 / qblur=0.5 / vbv_maxrate=50000 / vbv_bufsize=50000 / nal_hrd=none / ip_ratio=1.40 / pb_ratio=1.30 / aq=1:1.00
Язык : English
Default : Да
Forced : Да

Аудио #1
Идентификатор : 2
Формат : AC-3
Формат/Информация : Audio Coding 3
Расширение режима : CM (complete main)
Параметр Endianness формата : Big
Идентификатор кодека : A_AC3
Продолжительность : 1 ч. 35 м.
Вид битрейта : Постоянный
Битрейт : 192 Кбит/сек
Каналы : 2 канала
Расположение каналов : Front: L R
Частота : 48,0 КГц
Битовая глубина : 16 бит
Метод сжатия : С потерями
Размер потока : 131 Мбайт (6%)
Заголовок : Многоголосый закадровый
Язык : Russian
Default : Да
Forced : Да

Аудио #2
Идентификатор : 3
Формат : AC-3
Формат/Информация : Audio Coding 3
Расширение режима : CM (complete main)
Параметр Endianness формата : Big
Идентификатор кодека : A_AC3
Продолжительность : 1 ч. 35 м.
Вид битрейта : Постоянный
Битрейт : 192 Кбит/сек
Каналы : 2 канала
Расположение каналов : Front: L R
Частота : 48,0 КГц
Битовая глубина : 16 бит
Метод сжатия : С потерями
Размер потока : 131 Мбайт (6%)
Заголовок : Авторский [Андрей Гаврилов]
Язык : Russian
Default : Нет
Forced : Нет

Аудио #3
Идентификатор : 4
Формат : AC-3
Формат/Информация : Audio Coding 3
Расширение режима : CM (complete main)
Параметр Endianness формата : Big
Идентификатор кодека : A_AC3
Продолжительность : 1 ч. 35 м.
Вид битрейта : Постоянный
Битрейт : 384 Кбит/сек
Каналы : 6 каналов
Расположение каналов : Front: L C R, Side: L R, LFE
Частота : 48,0 КГц
Битовая глубина : 16 бит
Метод сжатия : С потерями
Размер потока : 263 Мбайт (13%)
Язык : English
Default : Нет
Forced : Нет

Текст #1
Идентификатор : 5
Формат : UTF-8
Идентификатор кодека : S_TEXT/UTF8
Идентификатор кодека/Информация : UTF-8 Plain Text
Язык : Russian
Default : Нет
Forced : Нет

Текст #2
Идентификатор : 6
Формат : UTF-8
Идентификатор кодека : S_TEXT/UTF8
Идентификатор кодека/Информация : UTF-8 Plain Text
Язык : French
Default : Нет
Forced : Нет

Меню
00:00:00.000 : :Chapter 01
00:10:24.601 : :Chapter 02
00:17:22.701 : :Chapter 03
00:24:05.101 : :Chapter 04
00:28:18.401 : :Chapter 05
00:37:30.701 : :Chapter 06
00:48:23.368 : :Chapter 07
00:53:46.868 : :Chapter 08
01:00:48.035 : :Chapter 09
01:09:30.269 : :Chapter 10
01:21:04.436 : :Chapter 11
01:27:01.070 : :Chapter 12
01:31:32.837 : :Chapter 13
01:35:40.771 : :Chapter 14

x264 [info]: frame I:1298 Avg QP:18.05 size: 68973
x264 [info]: frame P:28961 Avg QP:20.55 size: 24125
x264 [info]: frame B:107402 Avg QP:22.31 size: 7809
Релиз от: 0ptimus



Скачать Коэффициент.интеллекта.I.Q.(Фред.Скепси).[1994.мелодрама.комедия.HDTVRip-AVC].[MVO]+[AVO]+[Sub].torrent без регистрации
Золото ЗОЛОТАЯ РАЗДАЧА! СКАЧАННОЕ НЕ ЗАСЧИТЫВАЕТСЯ! Золото
Дата: Зарегистрирован   [ Тип: внутренний ] Как тут cкачать?
MAGNET ссылка
MAGNET ссылка


Скачать .torrent

11 KB

Статус: проверено DHT
Скачан: торрент - 111 раз, раздача полностью - 38 раз
Размер: 2,03 GB
Оценка:  - (Голосов: 0)
Поблагодарили: 1
Поделиться ссылкой на эту раздачу с друзьями:
В контактеFacebookОдноклассникиTwitterLivejournalМой МирLiveinternet
 

 
Показать сообщения:    


Вы не можете начинать темы
Вы не можете отвечать на сообщения
Вы не можете редактировать свои сообщения
Вы не можете удалять свои сообщения
Вы не можете голосовать в опросах
Вы не можете прикреплять файлы к сообщениям
Вы можете скачивать файлы