Loading...
Error

Скачать Крылышко или ножка / L'aile ou la cuisse (Клод Зиди) [1976, комедия, DVDRip] [MVO] торрент без регистрации

 
Статистика раздачи
Размер:  748 MB   |    Скачан:  134 раза
Сидов:  1  [  0 KB/s  ]  
 
Автор Сообщение

Marsianka

[] 

Название: Крылышко или ножка
Оригинальное название: Крылышко или ножка / L'aile ou la cuisse
Год выпуска: 1976
Страна: Франция
Жанр: комедия
Продолжительность: 01:40:38
Перевод: Профессиональный (многоголосый, закадровый)
Субтитры: нет

Режиссер: Клод Зиди / Claude Zidi

В ролях: Луи де Фюнес, Колюш, Энн Захариас, Жюльен Гиомар, Клод Жансак, Жорж Шамара, Жан Мартен, Фернан Гио, Жерар Букарон, Антуан Марен

Описание: Главный герой мсье Дюшемен респектабельный составитель ежегодного справочника-путеводителя по ресторанам. Авторитет его книги настолько высок, что все рестораны в Париже и его окрестностях стремятся предстать на ее страницах в выгодном свете.
Это очень трудно, поскольку Дюшемен все время сам обходит все заведения, переодеваясь, чтобы оставаться не узнанным. Единственное разочарование Дюшемена его сын, который не желает идти по стопам отца, мечтая стать клоуном в цирке



Качество: DVDRip
Формат: AVI
Видео кодек: XviD
Аудио кодек: MP3
Видео: 624x272 (2.29:1), 25 fps, XviD build 50, 895 kbps avg, 0.21 bit/pixel
Аудио: 48 kHz, MPEG Layer 3, 2 ch, 128.00 kbps avg
D:Мои рипыКрылышко или ножка_DVDRip by dexter lex.avi
General
Complete name : D:Мои рипыКрылышко или ножка_DVDRip by dexter lex.avi
Format : AVI
Format/Info : Audio Video Interleave
File size : 748 MiB
Duration : 1h 41mn
Overall bit rate : 1 032 Kbps
Writing application : VirtualDubMod 1.5.10.3 | www.virtualdub-fr.org || (build 2550/release)
Writing library : VirtualDubMod build 2550/release
Video #0
ID : 0
Format : MPEG-4 Visual
Format profile : Advanced Simple@L5
Format settings, BVOP : 2
Format settings, QPel : No
Format settings, GMC : No warppoints
Format settings, Matrix : Custom
Codec ID : XVID
Codec ID/Hint : XviD
Duration : 1h 41mn
Bit rate : 894 Kbps
Width : 624 pixels
Height : 272 pixels
Display aspect ratio : 2.29:1
Frame rate : 25.000 fps
Color space : YUV
Chroma subsampling : 4:2:0
Bit depth : 8 bits
Scan type : Progressive
Compression mode : Lossy
Bits/(Pixel*Frame) : 0.211
Stream size : 648 MiB (87%)
Writing library : XviD 1.2.1 (UTC 2008-12-04)
Audio #1
ID : 1
Format : MPEG Audio
Format version : Version 1
Format profile : Layer 3
Codec ID : 55
Codec ID/Hint : MP3
Duration : 1h 41mn
Bit rate mode : Constant
Bit rate : 128 Kbps
Channel(s) : 2 channels
Sampling rate : 48.0 KHz
Compression mode : Lossy
Stream size : 92.7 MiB (12%)
Alignment : Aligned on interleaves
Interleave, duration : 40 ms (1.00 video frame)
Interleave, preload duration : 504 ms
Writing library : LAME3.99r
Encoding settings : -m s -V 4 -q 2 -lowpass 17 -b 128
Релиз от:



Скачать Крылышко.или.ножка.L'aile.ou.la.cuisse.(Клод.Зиди).[1976.комедия.DVDRip].[MVO].torrent без регистрации
Золото ЗОЛОТАЯ РАЗДАЧА! СКАЧАННОЕ НЕ ЗАСЧИТЫВАЕТСЯ! Золото
Дата: Зарегистрирован   [ Тип: внутренний ] Как тут cкачать?
MAGNET ссылка
MAGNET ссылка


Скачать .torrent

15 KB

Статус: проверено DHT
Скачан: торрент - 134 раз, раздача полностью - 15 раз
Размер: 748 MB
Оценка:  4 (Голосов: 1)
Поблагодарили: 1
Поделиться ссылкой на эту раздачу с друзьями:
В контактеFacebookОдноклассникиTwitterLivejournalМой МирLiveinternet
 

 
Показать сообщения:    


Вы не можете начинать темы
Вы не можете отвечать на сообщения
Вы не можете редактировать свои сообщения
Вы не можете удалять свои сообщения
Вы не можете голосовать в опросах
Вы не можете прикреплять файлы к сообщениям
Вы можете скачивать файлы