Loading...
Error

Скачать Юная девушка Дракон / Yang guo yu xiao long nu (Шан Хуа) [1983, боевые искусства, DVDRip] [VO] торрент без регистрации

 
Статистика раздачи
Размер:  745 MB   |    Скачан:  114 раз
Сидов:  1  [  0 KB/s  ]  
 
Автор Сообщение

Marsianka

[] 

Информация о фильме
Название: Юная девушка Дракон
Оригинальное название: Yang guo yu xiao long nu
Год выхода: 1983
Жанр: боевые искусства
Режиссер: Шан Хуа
В ролях: Лесли Чеунг, Юнг Йинг Йинг, Чен Куэн-Тай, Лау Сует Вах, Тиен Ни, Лунг Тиен Хсианг, Джо Джон Чанг, Ку Фенг, Ло Лье, Сун Чен

О фильме:
Молодой парень, рано оставшийся без родителей, занимается бродяжничеством. В пути он встречает семью своего дяди (которые причастны к смерти его отца), они дают ему кров, и отправляют обучаться кунг-фу. Не выдержав издевательств более опытных учеников, он убегает. В древней гробнице живет юная девушка Дракон, обладающая секретами мастерства кунг-фу. Волей судьбы они встречаются. Но спокойной жизни им не видать, секреты мастерства притягивают многих.



Страна: Китай, Гонконг
Студия: Shaw Brothers
Продолжительность: 01:32:07
Перевод: Любительский одноголосый закадровый (Jet)

Файл
Кодек: XviD
Качество: DVDRip
Видео: 688x288 (2.39:1), 23.976 fps, 993 kbps avg, 0.209 bit/pixel
Звук: 48 kHz, MPEG Layer 3, 2 ch, ~128.00 kbps avg
Субтитры: Нет
Формат : AVI
Формат/Информация : Audio Video Interleave
Размер файла : 745 Мбайт
Продолжительность : 1 ч. 32 м.
Общий поток : 1131 Кбит/сек
Программа кодирования : VirtualDubMod 1.5.10.2 (build 2540/release)
Библиотека кодирования : VirtualDubMod build 2540/release

Видео
Идентификатор : 0
Формат : MPEG-4 Visual
Профиль формата : Advanced Simple@L5
Параметр BVOP формата : 2
Параметр QPel формата : Нет
Параметр GMC формата : Без точки перехода
Параметр матрицы формата : Выборочная
Идентификатор кодека : XVID
Идентификатор кодека/Подсказка : XviD
Продолжительность : 1 ч. 32 м.
Битрейт : 993 Кбит/сек
Ширина : 688 пикселей
Высота : 288 пикселей
Соотношение сторон : 2,40:1
Частота кадров : 23,976 кадра/сек
Цветовое пространство : YUV
Субдискретизация насыщенности : 4:2:0
Битовая глубина : 8 бит
Тип развёртки : Прогрессивная
Метод сжатия : С потерями
Бит/(Пиксели*Кадры) : 0.209
Размер потока : 654 Мбайт (88%)
Библиотека кодирования : XviD 1.2.1 (UTC 2008-12-04)

Аудио
Идентификатор : 1
Формат : MPEG Audio
Версия формата : Version 1
Профиль формата : Layer 3
Режим : Joint stereo
Идентификатор кодека : 55
Идентификатор кодека/Подсказка : MP3
Продолжительность : 1 ч. 32 м.
Вид битрейта : Постоянный
Битрейт : 128 Кбит/сек
Каналы : 2 канала
Частота : 48,0 КГц
Метод сжатия : С потерями
Размер потока : 84,3 Мбайт (11%)
Выравнивание : Соединение по промежуткам
Продолжительность промежутка : 42 мс. (1,00 видеокадр)
Время предзагрузки промежутка : 504 мс.



Скачать Юная.девушка.Дракон.Yang.guo.yu.xiao.long.nu.(Шан.Хуа).[1983.боевые.искусства.DVDRip].[VO].torrent без регистрации
Золото ЗОЛОТАЯ РАЗДАЧА! СКАЧАННОЕ НЕ ЗАСЧИТЫВАЕТСЯ! Золото
Дата: Зарегистрирован   [ Тип: внутренний ] Как тут cкачать?
MAGNET ссылка
MAGNET ссылка


Скачать .torrent

15 KB

Статус: проверено DHT
Скачан: торрент - 114 раз, раздача полностью - 155 раз
Размер: 745 MB
Оценка:  - (Голосов: 0)
Поблагодарили: 1
Поделиться ссылкой на эту раздачу с друзьями:
В контактеFacebookОдноклассникиTwitterLivejournalМой МирLiveinternet
 

 
Показать сообщения:    


Вы не можете начинать темы
Вы не можете отвечать на сообщения
Вы не можете редактировать свои сообщения
Вы не можете удалять свои сообщения
Вы не можете голосовать в опросах
Вы не можете прикреплять файлы к сообщениям
Вы можете скачивать файлы