Loading...
Error

Скачать Парфюмер: История одного убийцы / Perfume: The Story of a Murderer (Том Тыквер) [2006, триллер, драма, криминал, BDRip-AVC] [Dub]+[AVO]+[Sub] торрент без регистрации

 
Статистика раздачи
Размер:  3,24 GB   |    Скачан:  141 раз
Сидов:  1  [  0 KB/s  ]  
 
Автор Сообщение

Marsianka

[] 

Информация о фильме
Название: Парфюмер: История одного убийцы
Оригинальное название: Perfume: The Story of a Murderer
Год выхода: 2006
Жанр: триллер, драма, криминал
Режиссер: Том Тыквер
В ролях: Дастин Хоффман, Бен Уишоу, Алан Рикман, Рейчел Хард-Вуд, Андрэ Эррера, Саймон Чендлер, Дэвид Колдер, Ричард Феликс, Берджит Миничмейр, Рег Уилсон

О фильме:
Жестокий, никогда не знавший любви, сирота Жан-Батист Гренуй настоящих успехов достиг лишь на одном поприще среди парфюмеров ему никогда не было равных. По его духам сходит с ума весь высший свет, не подозревая о том, какой страшной ценой будет получен последний, идеальный аромат.



Страна: Германия, США, Франция, Испания
Продолжительность: 02:27:24
Перевод: Дублированный, авторский одноголосый (Ю.Немахов)
Субтитры: Русские
Дата релиза: 26.02.2013

Файл
Кодек: H.264
Качество: BDRip (AVC) (BDRemux (1080p))
Видео: MPEG-4 AVC, 1800 Кбит/с, 1024x436, 23.976 кадр/с
Звук:
Русский (AC3, 6 ch, 448 Кбит/с) Дублированный
Русский (AC3, 6 ch, 448 Кбит/с) Авторский одноголосый (Ю.Немахов)
Английский (AC3, 6 ch, 448 Кбит/с)
Общее
Уникальный идентификатор : 179808753985491946404737914782321891662 (0x8745E806F873E26DB119E62D42DE594E)
Полное имя : D:2Parfjumer.Istorija.odnogo.ubijcy.2006.x264.BDRip.(AVC).ExKinoRay.mkv
Формат : Matroska
Версия формата : Version 2
Размер файла : 3,24 Гбайт
Продолжительность : 2 ч. 27 м.
Общий поток : 3145 Кбит/сек
Название фильма : Parfjumer.Istorija.odnogo.ubijcy.2006.x264.BDRip.(AVC).ExKinoRay
Дата кодирования : UTC 2013-02-25 06:47:22
Программа кодирования : mkvmerge v4.0.0 ('The Stars were mine') сборка от Jun 6 2010 16:18:42
Библиотека кодирования : libebml v1.0.0 + libmatroska v1.0.0

Видео
Идентификатор : 1
Формат : AVC
Формат/Информация : Advanced Video Codec
Профиль формата : High@L4.1
Параметр CABAC формата : Да
Параметр ReFrames формата : 8 кадров
Идентификатор кодека : V_MPEG4/ISO/AVC
Продолжительность : 2 ч. 27 м.
Битрейт : 1800 Кбит/сек
Ширина : 1024 пикселя
Высота : 436 пикселей
Соотношение сторон : 2,35:1
Частота кадров : 23,976 кадра/сек
Цветовое пространство : YUV
Субдискретизация насыщенности : 4:2:0
Битовая глубина : 8 бит
Тип развёртки : Прогрессивная
Бит/(Пиксели*Кадры) : 0.168
Размер потока : 1,79 Гбайт (55%)
Заголовок : Rip by Enigma-Vladislav71
Библиотека кодирования : x264 core 129 r2245 bc13772
Настройки программы : cabac=1 / ref=8 / deblock=1:-2:-2 / analyse=0x3:0x133 / me=umh / subme=11 / psy=1 / psy_rd=1.00:0.00 / mixed_ref=1 / me_range=48 / chroma_me=1 / trellis=2 / 8x8dct=1 / cqm=0 / deadzone=21,11 / fast_pskip=0 / chroma_qp_offset=-2 / threads=3 / lookahead_threads=1 / sliced_threads=0 / nr=0 / decimate=0 / interlaced=0 / bluray_compat=0 / constrained_intra=0 / bframes=8 / b_pyramid=2 / b_adapt=2 / b_bias=0 / direct=3 / weightb=1 / open_gop=0 / weightp=2 / keyint=240 / keyint_min=23 / scenecut=40 / intra_refresh=0 / rc_lookahead=40 / rc=2pass / mbtree=1 / bitrate=1800 / ratetol=1.0 / qcomp=0.60 / qpmin=10 / qpmax=51 / qpstep=4 / cplxblur=20.0 / qblur=0.5 / ip_ratio=1.40 / aq=2:1.00
Язык : English

Аудио #1
Идентификатор : 2
Формат : AC-3
Формат/Информация : Audio Coding 3
Расширение режима : CM (complete main)
Идентификатор кодека : A_AC3
Продолжительность : 2 ч. 27 м.
Вид битрейта : Постоянный
Битрейт : 448 Кбит/сек
Каналы : 6 каналов
Расположение каналов : Front: L C R, Side: L R, LFE
Частота : 48,0 КГц
Битовая глубина : 16 бит
Метод сжатия : С потерями
Размер потока : 472 Мбайт (14%)
Заголовок : Дублированный
Язык : Russian

Аудио #2
Идентификатор : 3
Формат : AC-3
Формат/Информация : Audio Coding 3
Расширение режима : CM (complete main)
Идентификатор кодека : A_AC3
Продолжительность : 2 ч. 27 м.
Вид битрейта : Постоянный
Битрейт : 448 Кбит/сек
Каналы : 6 каналов
Расположение каналов : Front: L C R, Side: L R, LFE
Частота : 48,0 КГц
Битовая глубина : 16 бит
Метод сжатия : С потерями
Размер потока : 472 Мбайт (14%)
Заголовок : авторский (Немахов)
Язык : Russian

Аудио #3
Идентификатор : 4
Формат : AC-3
Формат/Информация : Audio Coding 3
Расширение режима : CM (complete main)
Идентификатор кодека : A_AC3
Продолжительность : 2 ч. 27 м.
Вид битрейта : Постоянный
Битрейт : 448 Кбит/сек
Каналы : 6 каналов
Расположение каналов : Front: L C R, Side: L R, LFE
Частота : 48,0 КГц
Битовая глубина : 16 бит
Метод сжатия : С потерями
Размер потока : 472 Мбайт (14%)
Заголовок : английский
Язык : English

Текст
Идентификатор : 5
Формат : UTF-8
Идентификатор кодека : S_TEXT/UTF8
Идентификатор кодека/Информация : UTF-8 Plain Text
Язык : Russian

Меню
00:00:00.000 : en:Chapter 01
00:04:08.746 : en:Chapter 02
00:09:16.471 : en:Chapter 03
00:12:10.186 : en:Chapter 04
00:18:02.205 : en:Chapter 05
00:27:41.659 : en:Chapter 06
00:33:29.089 : en:Chapter 07
00:43:56.842 : en:Chapter 08
00:49:27.422 : en:Chapter 09
00:58:21.706 : en:Chapter 10
01:03:28.304 : en:Chapter 11
01:08:19.929 : en:Chapter 12
01:16:09.146 : en:Chapter 13
01:21:56.536 : en:Chapter 14
01:29:21.439 : en:Chapter 15
01:36:42.128 : en:Chapter 16
01:42:02.448 : en:Chapter 17
01:47:58.305 : en:Chapter 18
01:53:50.113 : en:Chapter 19
01:56:57.342 : en:Chapter 20
02:05:07.207 : en:Chapter 21
02:11:20.872 : en:Chapter 22
02:17:53.263 : en:Chapter 23
02:27:22.834 : en:Chapter 24
Семпл Релиз от:

Авторы релиза:



Скачать Парфюмер.История.одного.убийцы.Perfume.The.Story.of.a.Murderer.(Том.Тыквер).[2006.триллер.драма.криминал.BDRip-AVC].[Dub]+[AVO]+[Sub].torrent без регистрации
Золото ЗОЛОТАЯ РАЗДАЧА! СКАЧАННОЕ НЕ ЗАСЧИТЫВАЕТСЯ! Золото
Дата: Зарегистрирован   [ Тип: внутренний ] Как тут cкачать?
MAGNET ссылка
MAGNET ссылка


Скачать .torrent

17 KB

Статус: проверено DHT
Скачан: торрент - 141 раз, раздача полностью - 118 раз
Размер: 3,24 GB
Оценка:  5 (Голосов: 1)
Поблагодарили: 2
Поделиться ссылкой на эту раздачу с друзьями:
В контактеFacebookОдноклассникиTwitterLivejournalМой МирLiveinternet
 

 
Показать сообщения:    


Вы не можете начинать темы
Вы не можете отвечать на сообщения
Вы не можете редактировать свои сообщения
Вы не можете удалять свои сообщения
Вы не можете голосовать в опросах
Вы не можете прикреплять файлы к сообщениям
Вы можете скачивать файлы