Loading...
Error

Скачать Ода доблести / Xia ke hang (Че Чанг) [1982, боевые искусства, DVDRip] [AVO] торрент без регистрации

 
Статистика раздачи
Размер:  1,37 GB   |    Скачан:  118 раз
Сидов:  1  [  0 KB/s  ]  
 
Автор Сообщение

Marsianka

[] 

Информация о фильме
Название: Ода доблести
Оригинальное название: Xia ke hang
Год выхода: 1982
Жанр: боевые искусства
Режиссер: Че Чанг
В ролях: Филип Квок, Кэнди Вэнь, Вонг Лик, Сунь Чиень, Танг Чинг, Лау Вэй, Яу Чуи, Чянг Шенг, Чу Ко, Рикки Ченг, Чань Шень, Чеунг Хей

О фильме:
Непобедимый мастер Кунг-фу (Вонг Лик) периодически расправляется с кланами убийц, уничтожая всех до единого, если глава клана отказывается вступить в поединок. Оставшийся, ещё не наказанный клан идёт на хитрость - приглашает к себе во главу парня (Филип Квок), который, не сильно-то разбирается в подобных делах. На его счастье находиться парнишка (Филип Квок) очень похожий на него - близнец, который считается погибшим в младенчестве.... О доблести, храбрости и героизме, и о противоположной стороне человека говорит этот фильм. Один из фильмов с участием "Venoms"(ядовитых).



Страна: Китай, Гонконг
Студия: Shaw Brothers
Продолжительность: 01:23:00
Перевод: Авторский (одноголосый закадровый)

Файл
Кодек: XviD
Качество: DVDRip
Видео: 720x304 (2,35:1), 29.970 fps, 2160 kbps avg, 0.329 bit/pixel
Звук: 48 kHz, MPEG Layer 3, 2 ch, ~192.00 kbps avg
Субтитры: Нет
Формат : AVI
Формат/Информация : Audio Video Interleave
Размер файла : 1,37 Гбайт
Продолжительность : 1 ч. 23 м.
Общий поток : 2364 Кбит/сек
Программа кодирования : VirtualDubMod 1.5.10.2 (build 2540/release)
Библиотека кодирования : VirtualDubMod build 2540/release

Видео
Идентификатор : 0
Формат : MPEG-4 Visual
Профиль формата : Advanced Simple@L5
Параметр BVOP формата : 2
Параметр QPel формата : Да
Параметр GMC формата : 3 точки перехода
Параметр матрицы формата : Default (H.263)
Идентификатор кодека : XVID
Идентификатор кодека/Подсказка : XviD
Продолжительность : 1 ч. 23 м.
Битрейт : 2160 Кбит/сек
Ширина : 720 пикселей
Высота : 304 пикселя
Соотношение сторон : 2,35:1
Частота кадров : 29,970 кадров/сек
Цветовое пространство : YUV
Субдискретизация насыщенности : 4:2:0
Битовая глубина : 8 бит
Тип развёртки : Прогрессивная
Метод сжатия : С потерями
Бит/(Пиксели*Кадры) : 0.329
Размер потока : 1,25 Гбайт (91%)
Библиотека кодирования : XviD 1.2.1 (UTC 2008-12-04)

Аудио
Идентификатор : 1
Формат : MPEG Audio
Версия формата : Version 1
Профиль формата : Layer 3
Идентификатор кодека : 55
Идентификатор кодека/Подсказка : MP3
Продолжительность : 1 ч. 22 м.
Вид битрейта : Постоянный
Битрейт : 192 Кбит/сек
Каналы : 2 канала
Частота : 48,0 КГц
Метод сжатия : С потерями
Размер потока : 114 Мбайт (8%)
Выравнивание : Соединение по промежуткам
Продолжительность промежутка : 33 мс. (1,00 видеокадр)
Время предзагрузки промежутка : 504 мс.
Библиотека кодирования : LAME3.98r
Настройки программы : -m s -V 4 -q 2 -lowpass 18.6 -b 192



Скачать Ода.доблести.Xia.ke.hang.(Че.Чанг).[1982.боевые.искусства.DVDRip].[AVO].torrent без регистрации
Золото ЗОЛОТАЯ РАЗДАЧА! СКАЧАННОЕ НЕ ЗАСЧИТЫВАЕТСЯ! Золото
Дата: Зарегистрирован   [ Тип: внутренний ] Как тут cкачать?
MAGNET ссылка
MAGNET ссылка


Скачать .torrent

14 KB

Статус: проверено DHT
Скачан: торрент - 118 раз, раздача полностью - 4 раз
Размер: 1,37 GB
Оценка:  - (Голосов: 0)
Поблагодарили: 0
Поделиться ссылкой на эту раздачу с друзьями:
В контактеFacebookОдноклассникиTwitterLivejournalМой МирLiveinternet
 

 
Показать сообщения:    


Вы не можете начинать темы
Вы не можете отвечать на сообщения
Вы не можете редактировать свои сообщения
Вы не можете удалять свои сообщения
Вы не можете голосовать в опросах
Вы не можете прикреплять файлы к сообщениям
Вы можете скачивать файлы