Loading...
Error

Скачать Самурай убийца / Samurai assassin (Кихачи Окамото) [1965, самурайская драма, приключения, DVDRip] [MVO] торрент без регистрации

 
Статистика раздачи
Размер:  1,46 GB   |    Скачан:  104 раза
Сидов:  1  [  0 KB/s  ]  
 
Автор Сообщение

Marsianka

[] 

Информация о фильме
Название: Самурай убийца
Оригинальное название: Samurai assassin
Год выхода: 1965
Жанр: самурайская драма, приключения
Режиссер: Кихачи Окамото
В ролях: Тосиро Мифунэ, Кейдзу Кобаяси, Мичио Аратама, Уносукэ Ито, Эйдзиро Тоно, Татсатуоси Ехара, Тадао Накамуру, Широ Оцуде, Йошио Инаба

О фильме:
Историческая эпопея о Японии времен междоусобных войн, снятая с небывалым размахом на местах подлинных исторических событий. 1860-й год. Идёт борьба между сторонниками сёгуна и сторонниками императора. Династия Токугава находится на грани краха. Ии Иносукэ, по прозвищу «Красный Дьявол», посадил на трон сёгунов марионетку, чтобы самому править страной. Клан Митто, находящийся в оппозиции, планирует убийство Иносукэ. Среди них Нииро Цурихиё (Тосиро Мифунэ). Незаконнорожденный сын знатного самурая, он был воспитан в семье торговцев, но, несмотря на это, хочет стать самураем. Нииро выдающийся фехтовальщик, социальный изгой, которого подозревают в шпионаже члены клана.



Страна: Япония
Студия: Toho Company Ltd.
Продолжительность: 01:56:50
Перевод: Профессиональный (многоголосый закадровый)

Файл
Кодек: XviD
Качество: DVDRip
Видео: 704x304 (2.32:1), 25 fps, ~1584 kbps avg, 0.30 bit/pixel
Звук: 48 kHz, AC3 Dolby Digital, 2/0 (L,R) ch, ~192 kbps
Субтитры: Нет
Формат : AVI
Формат/Информация : Audio Video Interleave
Размер файла : 1,46 Гбайт
Продолжительность : 1 ч. 56 м.
Общий поток : 1786 Кбит/сек
Программа кодирования : VirtualDubMod 1.5.10.3 | www.virtualdub-fr.org || (build 2550/release)
Библиотека кодирования : VirtualDubMod build 2550/release

Видео
Идентификатор : 0
Формат : MPEG-4 Visual
Профиль формата : Advanced Simple@L5
Параметр BVOP формата : 2
Параметр QPel формата : Нет
Параметр GMC формата : Без точки перехода
Параметр матрицы формата : Выборочная
Идентификатор кодека : XVID
Идентификатор кодека/Подсказка : XviD
Продолжительность : 1 ч. 56 м.
Битрейт : 1584 Кбит/сек
Ширина : 704 пикселя
Высота : 304 пикселя
Соотношение сторон : 2,35:1
Частота кадров : 25,000 кадров/сек
Цветовое пространство : YUV
Субдискретизация насыщенности : 4:2:0
Битовая глубина : 8 бит
Тип развёртки : Прогрессивная
Метод сжатия : С потерями
Бит/(Пиксели*Кадры) : 0.296
Размер потока : 1,29 Гбайт (89%)
Библиотека кодирования : XviD 1.2.1 (UTC 2008-12-04)

Аудио
Идентификатор : 1
Формат : AC-3
Формат/Информация : Audio Coding 3
Расширение режима : CM (complete main)
Параметр Endianness формата : Big
Идентификатор кодека : 2000
Продолжительность : 1 ч. 56 м.
Вид битрейта : Постоянный
Битрейт : 192 Кбит/сек
Каналы : 2 канала
Расположение каналов : Front: L R
Частота : 48,0 КГц
Битовая глубина : 16 бит
Метод сжатия : С потерями
Размер потока : 160 Мбайт (11%)
Выравнивание : Разделение по промежуткам
Продолжительность промежутка : 40 мс. (1,00 видеокадр)
Время предзагрузки промежутка : 500 мс.



Скачать Самурай.убийца.Samurai.assassin.(Кихачи.Окамото).[1965.самурайская.драма.приключения.DVDRip].[MVO].torrent без регистрации
Золото ЗОЛОТАЯ РАЗДАЧА! СКАЧАННОЕ НЕ ЗАСЧИТЫВАЕТСЯ! Золото
Дата: Зарегистрирован   [ Тип: внутренний ] Как тут cкачать?
MAGNET ссылка
MAGNET ссылка


Скачать .torrent

15 KB

Статус: проверено DHT
Скачан: торрент - 104 раз, раздача полностью - 7 раз
Размер: 1,46 GB
Оценка:  - (Голосов: 0)
Поблагодарили: 2
Поделиться ссылкой на эту раздачу с друзьями:
В контактеFacebookОдноклассникиTwitterLivejournalМой МирLiveinternet
 

 
Показать сообщения:    


Вы не можете начинать темы
Вы не можете отвечать на сообщения
Вы не можете редактировать свои сообщения
Вы не можете удалять свои сообщения
Вы не можете голосовать в опросах
Вы не можете прикреплять файлы к сообщениям
Вы можете скачивать файлы