Loading...
Error

Скачать Полицейская история 3: Суперполицейский / Ging chat goo si 3: Chiu kup ging chat / Police Story III: Supercop (Стэнли Тонг) [1992, Боевик, комедия, триллер, криминал, BDRip] [AVC] [FilmoRay VS Sheikn] [MVO] торрент без регистрации

 
Статистика раздачи
Размер:  2,04 GB   |    Скачан:  186 раз

Полного источника не было: 5 дней

 
Автор Сообщение

Sheikn

[] 

Информация о фильме
Название: Полицейская история 3: Суперполицейский
Оригинальное название: Ging chat goo si 3: Chiu kup ging chat (Police story 3: Supercop)
Год выхода: 1992
Жанр: Боевик, триллер, криминал, комедия
Режиссер: Стэнли Тонг
В ролях: Джеки Чан, Мишель Йео, Мэгги Чун, Кеннет Цан, Юэнь Ва, Билл Тун, Жозефин Ку, Келвин Вонг, Филип Чань, Кен Ло, Лье Ло, Вэй Шум, Йи Сан Хон, Вонг Юе Мэн, Сэк Чан, Марс, Ким Пенн, Джон Уэйкфилд, Минг-Синг Вонг

О фильме: Полиция Гонконга и Китая совместно с Интерполом готовит масштабную операцию по ликвидации интернациональной банды наркоторговцев. Замысел операции сводится к тому, чтобы вытащить из китайской тюрьмы одного из главарей нарко-спрута и через него выйти на верхушку организованной пирамиды. Кто же сможет осуществить такой дерзкий и рискованный план, если не Суперполицейский. Кевин Ченг, знакомый нам по первым сериям фильма, за какие-то прегрешения, ныне пребывающий в должности постового, вызван для осуществления необычной операции Интерпола. Для поддержки ему назначают директора китайского Интерпола очаровательную капитаншу Енг.



Страна: Гонконг / Golden Harvest Company Ltd., Golden Way Films Ltd.
Продолжительность: 01:31:04
Перевод: Профессиональный, многоголосый (ВГТРК по заказу Россия 1)
Дата релиза: 27.02.2013

Файл
Кодек: MPEG-4 AVC
Качество: BDRip (AVC)
Видео: 1024x576, 2820 Кбит/с
Звук: Русский, английский (АС3, 2 ch, 192 Кбит/с)

Семпл

Unique ID : 233786308427336744849475039527040366571 (0xAFE19AEE4EEB76F6A555045F4326B7EB)
Complete name : Policejskaja.istorija.3.Superpolicejskij.1992.х264.BDRip.(AVC).Filmoraу.Sheikn.mkv
Format : Matroska
Format version : Version 2
File size : 2.04 GiB
Duration : 1h 31mn
Overall bit rate : 3 205 Kbps
Encoded date : UTC 2013-02-27 17:48:34
Writing application : mkvmerge v4.0.0 ('The Stars were mine') сборка от Jun 6 2010 16:18:42
Writing library : libebml v1.0.0 + libmatroska v1.0.0
Video #1
ID : 1
Format : AVC
Format/Info : Advanced Video Codec
Format profile : Main@L3.1
Format settings, CABAC : Yes
Format settings, ReFrames : 5 frames
Codec ID : V_MPEG4/ISO/AVC
Duration : 1h 31mn
Bit rate : 2 820 Kbps
Width : 1 024 pixels
Height : 576 pixels
Display aspect ratio : 16:9
Frame rate mode : Constant
Frame rate : 23.976 fps
Color space : YUV
Chroma subsampling : 4:2:0
Bit depth : 8 bits
Scan type : Progressive
Bits/(Pixel*Frame) : 0.199
Stream size : 1.75 GiB (86%)
Writing library : x264 core 65
Encoding settings : cabac=1 / ref=5 / deblock=1:-2:-2 / analyse=0x1:0x111 / me=umh / subme=8 / psy_rd=1.0:0.0 / mixed_ref=0 / me_range=25 / chroma_me=1 / trellis=2 / 8x8dct=0 / cqm=0 / deadzone=21,11 / chroma_qp_offset=-2 / threads=6 / nr=0 / decimate=1 / mbaff=0 / bframes=2 / b_pyramid=0 / b_adapt=1 / b_bias=0 / direct=1 / wpredb=0 / keyint=240 / keyint_min=24 / scenecut=40(pre) / rc=2pass / bitrate=2820 / ratetol=1.0 / qcomp=0.60 / qpmin=10 / qpmax=51 / qpstep=4 / cplxblur=20.0 / qblur=0.5 / ip_ratio=1.40 / pb_ratio=1.30 / aq=1:1.00
Language : English
Default : No
Forced : No
Color primaries : BT.709
Transfer characteristics : BT.709
Matrix coefficients : BT.709
Audio #2
ID : 2
Format : AC-3
Format/Info : Audio Coding 3
Mode extension : CM (complete main)
Format settings, Endianness : Big
Codec ID : A_AC3
Duration : 1h 31mn
Bit rate mode : Constant
Bit rate : 192 Kbps
Channel(s) : 2 channels
Channel positions : Front: L R
Sampling rate : 48.0 KHz
Bit depth : 16 bits
Compression mode : Lossy
Stream size : 125 MiB (6%)
Title : Профессиональный, многоголосый (ВГТРК по заказу Россия 1)
Language : Russian
Default : No
Forced : No
Audio #3
ID : 3
Format : AC-3
Format/Info : Audio Coding 3
Mode extension : CM (complete main)
Format settings, Endianness : Big
Codec ID : A_AC3
Duration : 1h 31mn
Bit rate mode : Constant
Bit rate : 192 Kbps
Channel(s) : 2 channels
Channel positions : Front: L R
Sampling rate : 48.0 KHz
Bit depth : 16 bits
Compression mode : Lossy
Stream size : 125 MiB (6%)
Title : Английский (оригинал)
Language : English
Default : No
Forced : No

* Во время съемок Чан не успел уклониться от летящего на него вертолета, в результате чего повредил плечо и спину.
* Трюк на веревочной лестнице, скинутой с вертолета, выполнялся на высоте 300 метров.
* Фильм занимает 16-е место в двадцатке лучших фильмов с 1992 года по версии Квентина Тарантино.

Награды:

Кинофестиваль "Золотая лошадь", 1993 год
Победитель (1):
- Лучший актёр (Джеки Чан)
Номинации (1):
- Лучший монтаж (Питер Чунг, Кар Фэй Чунг)

Гонконгская кинопремия, 1992 год
Номинации (2):
- Лучший актёр (Джеки Чан)
- Лучшая хореография (Стэнли Тонг, Тэнг Так Уинг, Эйлен Сит, Чан Ман Чинг, Минг-Синг Вонг)
Релиз от:



Скачать Полицейская.история.3.Суперполицейский.Ging.chat.goo.si.3.Chiu.kup.ging.chat.Police.Story.III.Supercop.(Стэнли.Тонг).[1992.Боевик.комедия.триллер.криминал.BDRip].[AVC].[FilmoRay.VS.Sheikn].[MVO].torrent без регистрации
Золото ЗОЛОТАЯ РАЗДАЧА! СКАЧАННОЕ НЕ ЗАСЧИТЫВАЕТСЯ! Золото
Дата: Зарегистрирован   [ Тип: внутренний ] Как тут cкачать?
MAGNET ссылка
MAGNET ссылка


Скачать .torrent

11 KB

Статус: проверено
Скачан: торрент - 186 раз, раздача полностью - 321 раз
Размер: 2,04 GB
Оценка:  - (Голосов: 0)
Поблагодарили: 3
Поделиться ссылкой на эту раздачу с друзьями:
В контактеFacebookОдноклассникиTwitterLivejournalМой МирLiveinternet
 

 
Показать сообщения:    


Вы не можете начинать темы
Вы не можете отвечать на сообщения
Вы не можете редактировать свои сообщения
Вы не можете удалять свои сообщения
Вы не можете голосовать в опросах
Вы не можете прикреплять файлы к сообщениям
Вы можете скачивать файлы