Loading...
Error

Скачать Машина смерти / Death Machine (Стивен Норрингтон) [1994, ужасы, фантастика, боевик, триллер, DVDRip-AVC] [AVO]x3+[Sub] торрент без регистрации

 
Статистика раздачи
Размер:  2,16 GB   |    Скачан:  107 раз
Сидов:  1  [  0 KB/s  ]  
 
Автор Сообщение

Marsianka

[] 

Информация о фильме
Название: Машина смерти
Оригинальное название: Death Machine
Год выхода: 1994
Жанр: ужасы, фантастика, боевик, триллер
Режиссер: Стивен Норрингтон
В ролях: Брэд Дуриф, Эли Пугет, Уильям Хуткинс, Джон Шэриан, Мартин МакДугалл, Андреас Висневски, Ричард Брэйк, Алекс Брукс, Стюарт Ст. Пол, Джеки Совирис, Аннемари Зоула, Джули Кокс, Рональд Ферни, Лесли Лион, Джейсон Шеперд, Доминик Хоуксли, Рэйчел Вайз

О фильме: Боевой робот, запрограммированный только на уничтожение, вышел из-под контроля. Пульт управления этим чудовищем оказался в руках безумца-маньяка, ощутившего полную власть над людьми.Перед этим стальным чудовищем нет преград: огневые заслоны, бетонные стены, бронированные двери преодолеваются им без всяких усилий. Противостоять этому стальному монстру может только киберсолдат, в которого превращается один из преследуемых. Атмосфера фильма и его построение во многом похожи на такие картины, как "Левиафан" и "Чужие" с той разницей, что герои картины сражаются с творением своих рук, а не с инопланетными чудищами.



Выпущено: Великобритания, Fugitive Features, The Computer Film Company
Продолжительность: 01:57:08
Перевод:
Перевод 1: Авторский (одноголосый, закадровый) Сергей Визгунов
Перевод 2: Авторский (одноголосый, закадровый) Сергей Кузнецов
Перевод 3: Авторский (одноголосый, закадровый) Хихикающий доктор
Общее
Уникальный идентификатор : 230031965182867536456432824373944598667 (0xAD0E8B848AF51A83B445F0744F39408B)
Полное имя : D:ТоррентыMashina.smerti.1994.x264.DVDRip.(AVC)-NovaLan.mkv
Формат : Matroska
Версия формата : Version 2
Размер файла : 2,16 Гбайт
Продолжительность : 1 ч. 57 м.
Общий поток : 2640 Кбит/сек
Название фильма : Релиз от NovaLan (alek7120)
Дата кодирования : UTC 2013-02-26 17:50:31
Программа кодирования : mkvmerge v5.6.0 ('Kenya Kane') built on May 27 2012 16:44:04
Библиотека кодирования : libebml v1.2.3 + libmatroska v1.3.0

Видео
Идентификатор : 1
Формат : AVC
Формат/Информация : Advanced Video Codec
Профиль формата : High@L4.1
Параметр CABAC формата : Да
Параметр ReFrames формата : 8 кадров
Идентификатор кодека : V_MPEG4/ISO/AVC
Продолжительность : 1 ч. 57 м.
Битрейт : 1870 Кбит/сек
Ширина : 716 пикселей
Высота : 436 пикселей
Соотношение сторон : 2,35:1
Соотношение сторон в оригинале : 2,35:1
Режим частоты кадров : Постоянный
Частота кадров : 25,000 кадров/сек
Цветовое пространство : YUV
Субдискретизация насыщенности : 4:2:0
Битовая глубина : 8 бит
Тип развёртки : Прогрессивная
Бит/(Пиксели*Кадры) : 0.240
Размер потока : 1,49 Гбайт (69%)
Библиотека кодирования : x264 core 125 r2208 d9d2288
Настройки программы : cabac=1 / ref=8 / deblock=1:-2:-2 / analyse=0x3:0x133 / me=umh / subme=11 / psy=1 / psy_rd=1.00:0.15 / mixed_ref=1 / me_range=48 / chroma_me=0 / trellis=2 / 8x8dct=1 / cqm=0 / deadzone=21,11 / fast_pskip=0 / chroma_qp_offset=-3 / threads=6 / lookahead_threads=1 / sliced_threads=0 / nr=0 / decimate=0 / interlaced=0 / bluray_compat=0 / constrained_intra=0 / bframes=8 / b_pyramid=2 / b_adapt=2 / b_bias=0 / direct=3 / weightb=1 / open_gop=1 / weightp=2 / keyint=250 / keyint_min=25 / scenecut=40 / intra_refresh=0 / rc_lookahead=50 / rc=2pass / mbtree=1 / bitrate=1870 / ratetol=1.0 / qcomp=0.60 / qpmin=0 / qpmax=69 / qpstep=4 / cplxblur=20.0 / qblur=0.5 / ip_ratio=1.40 / aq=1:1.00
Язык : English
Default : Да
Forced : Нет

Аудио #1
Идентификатор : 2
Формат : AC-3
Формат/Информация : Audio Coding 3
Расширение режима : CM (complete main)
Параметр Endianness формата : Big
Идентификатор кодека : A_AC3
Продолжительность : 1 ч. 57 м.
Вид битрейта : Постоянный
Битрейт : 192 Кбит/сек
Каналы : 2 канала
Расположение каналов : Front: L R
Частота : 48,0 КГц
Битовая глубина : 16 бит
Метод сжатия : С потерями
Размер потока : 161 Мбайт (7%)
Заголовок : Авторский одноголосый (Сергей Визгунов)
Язык : Russian
Default : Да
Forced : Нет

Аудио #2
Идентификатор : 3
Формат : AC-3
Формат/Информация : Audio Coding 3
Расширение режима : CM (complete main)
Параметр Endianness формата : Big
Идентификатор кодека : A_AC3
Продолжительность : 1 ч. 57 м.
Вид битрейта : Постоянный
Битрейт : 192 Кбит/сек
Каналы : 2 канала
Расположение каналов : Front: L R
Частота : 48,0 КГц
Битовая глубина : 16 бит
Метод сжатия : С потерями
Размер потока : 161 Мбайт (7%)
Заголовок : Авторский одноголосый (Сергей Кузнецов)
Язык : Russian
Default : Нет
Forced : Нет

Аудио #3
Идентификатор : 4
Формат : AC-3
Формат/Информация : Audio Coding 3
Расширение режима : CM (complete main)
Параметр Endianness формата : Big
Идентификатор кодека : A_AC3
Продолжительность : 1 ч. 57 м.
Вид битрейта : Постоянный
Битрейт : 192 Кбит/сек
Каналы : 2 канала
Расположение каналов : Front: L R
Частота : 48,0 КГц
Битовая глубина : 16 бит
Метод сжатия : С потерями
Размер потока : 161 Мбайт (7%)
Заголовок : Авторский одноголосый (Хихикающий доктор)
Язык : Russian
Default : Нет
Forced : Нет

Аудио #4
Идентификатор : 5
Формат : AC-3
Формат/Информация : Audio Coding 3
Расширение режима : CM (complete main)
Параметр Endianness формата : Big
Идентификатор кодека : A_AC3
Продолжительность : 1 ч. 57 м.
Вид битрейта : Постоянный
Битрейт : 192 Кбит/сек
Каналы : 2 канала
Расположение каналов : Front: L R
Частота : 48,0 КГц
Битовая глубина : 16 бит
Метод сжатия : С потерями
Размер потока : 161 Мбайт (7%)
Заголовок : Оригинал (английский)
Язык : English
Default : Нет
Forced : Нет

Текст
Идентификатор : 6
Формат : UTF-8
Идентификатор кодека : S_TEXT/UTF8
Идентификатор кодека/Информация : UTF-8 Plain Text
Заголовок : Русские
Язык : Russian
Default : Да
Forced : Нет
Файл
Кодек: x264
Качество: DVDRip (AVC)
Видео: MPEG-4 AVC, 1870 Кбит/с, 716x436@1018x436, 25.000 кадр/сек
Звук: Русский, английский (АС3, 2 ch, 192 Кбит/с)
Субтитры: Русские

Семпл Релиз от:
Автор рипа:



Скачать Машина.смерти.Death.Machine.(Стивен.Норрингтон).[1994.ужасы.фантастика.боевик.триллер.DVDRip-AVC].[AVO]x3+[Sub].torrent без регистрации
Золото ЗОЛОТАЯ РАЗДАЧА! СКАЧАННОЕ НЕ ЗАСЧИТЫВАЕТСЯ! Золото
Дата: Зарегистрирован   [ Тип: внутренний ] Как тут cкачать?
MAGNET ссылка
MAGNET ссылка


Скачать .torrent

11 KB

Статус: проверено DHT
Скачан: торрент - 107 раз, раздача полностью - 24 раз
Размер: 2,16 GB
Оценка:  - (Голосов: 0)
Поблагодарили: 1
Поделиться ссылкой на эту раздачу с друзьями:
В контактеFacebookОдноклассникиTwitterLivejournalМой МирLiveinternet
 

 
Показать сообщения:    


Вы не можете начинать темы
Вы не можете отвечать на сообщения
Вы не можете редактировать свои сообщения
Вы не можете удалять свои сообщения
Вы не можете голосовать в опросах
Вы не можете прикреплять файлы к сообщениям
Вы можете скачивать файлы