Loading...
Error

Скачать Сын судьбы / Kiru (Кэндзи Мисуми) [1962, дзидай геки, самурайская драма, DVDRip] [VO] торрент без регистрации

 
Статистика раздачи
Размер:  1,37 GB   |    Скачан:  110 раз
Сидов:  1  [  0 KB/s  ]  
 
Автор Сообщение

Marsianka

[] 

Информация о фильме
Название: Сын судьбы
Оригинальное название: Kiru
Год выхода: 1962
Жанр: дзидай геки, самурайская драма
Режиссер: Кэндзи Мисуми
В ролях: Райзо Ичикава, Шигеру Амачи, Masayo Banri, Сихо Фуджимура, Маюми Нагиса, Дзюнитиро Нарита, Matasaburo Tamba, Teru Tomota, Эйдзиро Янаги

О фильме:
Еще один классический фильм начала 60-х прославленного режиссера жанра дзидай геки Кэндзи Мисуми с Райдзо Ичикавой в главной роли.

Действие фильма происходит накануне эры Мэйдзи. Самурай незнатного происхождения из небольшого клана в двадцатилетнем возрасте хочет отправиться в долгие странствия, возжелав увидеть "всего понемногу". Ввиду того, что тайна его рождения покрыта мраком, а само рождение ребенка сопровождали трагические обстоятельства, князь клана благоволит ему и разрешает путешествие на три года. По возвращении домой обнаруживается, что молодой самурай не зря потратил время и выучился необычному приему мечом, который повергает в замешательство всех его противников. Участие в турнире на мечах влечет за собой трагические события, в результате которых он узнает тайну своего рождения и вынужден навсегда оставить клан. Кульминация действия затрагивает исторические события первого года эры Бункё (1861), когда члены клана Мито совершили покушение на английское консульство, а также историческую фигуру князя Мацудайра.

Фильм о судьбе, преданности и чувстве долга самурая, который (как это часто бывает с героями Райдзо Ичикавы) родился под несчастливой звездой и жил в "век перемен".



Страна: Япония
Студия: Daiei Kyoto
Продолжительность: 01:11:18
Перевод: любительский, одноголосый

Файл
Кодек: XviD
Качество: DVDRip
Видео: 720x320 (2.25:1), 25 fps, ~2351 kbps avg, 0.41 bit/pixel
Звук:
48 kHz, MPEG Layer 3, 2 ch, ~192.00 kbps avg - VO (rus)
48 kHz, MPEG Layer 3, 2 ch, ~192.00 kbps avg - orig (jap)
Субтитры: Нет
Формат : AVI
Формат/Информация : Audio Video Interleave
Размер файла : 1,37 Гбайт
Продолжительность : 1 ч. 11 м.
Общий поток : 2749 Кбит/сек
Программа кодирования : VirtualDubMod 1.5.10.2 (build 2540/release)
Библиотека кодирования : VirtualDubMod build 2540/release

Видео
Идентификатор : 0
Формат : MPEG-4 Visual
Профиль формата : Advanced Simple@L5
Параметр BVOP формата : 1
Параметр QPel формата : Нет
Параметр GMC формата : Без точки перехода
Параметр матрицы формата : Default (H.263)
Идентификатор кодека : XVID
Идентификатор кодека/Подсказка : XviD
Продолжительность : 1 ч. 11 м.
Битрейт : 2351 Кбит/сек
Ширина : 720 пикселей
Высота : 320 пикселей
Соотношение сторон : 2,25:1
Частота кадров : 25,000 кадров/сек
Цветовое пространство : YUV
Субдискретизация насыщенности : 4:2:0
Битовая глубина : 8 бит
Тип развёртки : Прогрессивная
Метод сжатия : С потерями
Бит/(Пиксели*Кадры) : 0.408
Размер потока : 1,17 Гбайт (86%)
Библиотека кодирования : XviD 1.2.0.dev47 (UTC 2006-11-01)

Аудио #1
Идентификатор : 1
Формат : MPEG Audio
Версия формата : Version 1
Профиль формата : Layer 3
Режим : Joint stereo
Идентификатор кодека : 55
Идентификатор кодека/Подсказка : MP3
Продолжительность : 1 ч. 11 м.
Вид битрейта : Постоянный
Битрейт : 192 Кбит/сек
Каналы : 2 канала
Частота : 48,0 КГц
Метод сжатия : С потерями
Размер потока : 97,9 Мбайт (7%)
Выравнивание : Соединение по промежуткам
Продолжительность промежутка : 40 мс. (1,00 видеокадр)
Время предзагрузки промежутка : 504 мс.

Аудио #2
Идентификатор : 2
Формат : MPEG Audio
Версия формата : Version 1
Профиль формата : Layer 3
Режим : Joint stereo
Идентификатор кодека : 55
Идентификатор кодека/Подсказка : MP3
Продолжительность : 1 ч. 11 м.
Вид битрейта : Постоянный
Битрейт : 192 Кбит/сек
Каналы : 2 канала
Частота : 48,0 КГц
Метод сжатия : С потерями
Размер потока : 97,9 Мбайт (7%)
Выравнивание : Соединение по промежуткам
Продолжительность промежутка : 40 мс. (1,00 видеокадр)
Время предзагрузки промежутка : 504 мс.



Скачать Сын.судьбы.Kiru.(Кэндзи.Мисуми).[1962.дзидай.геки.самурайская.драма.DVDRip].[VO].torrent без регистрации
Золото ЗОЛОТАЯ РАЗДАЧА! СКАЧАННОЕ НЕ ЗАСЧИТЫВАЕТСЯ! Золото
Дата: Зарегистрирован   [ Тип: внутренний ] Как тут cкачать?
MAGNET ссылка
MAGNET ссылка


Скачать .torrent

14 KB

Статус: проверено DHT
Скачан: торрент - 110 раз, раздача полностью - 8 раз
Размер: 1,37 GB
Оценка:  - (Голосов: 0)
Поблагодарили: 0
Поделиться ссылкой на эту раздачу с друзьями:
В контактеFacebookОдноклассникиTwitterLivejournalМой МирLiveinternet
 

 
Показать сообщения:    


Вы не можете начинать темы
Вы не можете отвечать на сообщения
Вы не можете редактировать свои сообщения
Вы не можете удалять свои сообщения
Вы не можете голосовать в опросах
Вы не можете прикреплять файлы к сообщениям
Вы можете скачивать файлы