Loading...
Error

Скачать Артур / Arthur (Стив Гордон) [1981, комедия, мелодрама, BDRip-AVC] [MVO]+[DVO]+[AVO]+[VO]+[Sub] торрент без регистрации

 
Статистика раздачи
Размер:  2,75 GB   |    Скачан:  108 раз
Сидов:  1  [  0 KB/s  ]  
 
Автор Сообщение

Marsianka

[] 

Информация о фильме
Название: Артур
Оригинальное название: Arthur
Год выхода: 1981
Жанр: комедия, мелодрама
Режиссер: Стив Гордон
В ролях: Дадли Мур, Лайза Миннелли, Джон Гилгуд, Джеральдин Фицджералд, Джилл Айкенберри, Стивен Эллиот, Тед Росс, Барни Мартин, Томас Барбо, Энн Де Сальво, Марджори Барнс, Диллон Эванс, Морис Коуплэнд, Пол Винсент, Мэри Алан Хокансон, Пол Глисон, Филлис Соммервиль, Ирвинг Мецман, Джо Дулан, Джон Дулан, Лу Джекоби, Гордон Пресс, Марселла Лоури, Марк Флайшмен, Хелен Хэнфт, Джон Бентли, Рэймонд Серра, Питер Эванс

О фильме:
Жизнь самого богатого в мире бездельника по имени Артур нескончаемое пьянство и веселье. У него есть только одна проблема: ему надо заполучить несколько сот миллионов долларов семейного наследства. Для этого он должен жениться на самой скучной женщине Нью-Йорка, сосватанной ему родителями. Накануне свадьбы Артур влюбляется в официантку из дешевого ресторанчика. Теперь этому баловню судьбы предстоит как-то выйти из неудобного положения...



Страна: США, Orion Pictures Corporation
Продолжительность: 01:37:08
Перевод: Профессиональный многоголосый, профессиональный двухголосый, авторский одноголосый, любительский одноголосый
Субтитры: Русские, английские
Дата релиза: 27.02.2013

Файл
Кодек: H.264
Качество: BDRip (AVC) (Blu-Ray Remux (1080p))
Видео: MPEG-4 AVC, 2899 Кбит/с, 1024x576
Аудио 1: Русский (AC3, 2 ch, 192 Кбит/с) - многоголосый (ВГТРК)
Аудио 2: Русский (AC3, 2 ch, 192 Кбит/с) - двухголосый (НТВ+)
Аудио 3: Русский (AC3, 2 ch, 192 Кбит/с) - авторский (Михалев)
Аудио 4: Русский (AC3, 2 ch, 192 Кбит/с) - авторский (Иванов)
Аудио 5: Русский (AC3, 2 ch, 192 Кбит/с) - одноголосый (Бигыч)
Аудио 6: Английский (AC3, 1 ch, 192 Кбит/с)
Общее
Уникальный идентификатор : 209103115665865099956276322961851583334 (0x9D4FCB91BD44E4089B6D1723AAC28B66)
Полное имя : D:1Artur.1981.x264.BDRip.(AVC).ExKinoRay.mkv
Формат : Matroska
Версия формата : Version 2
Размер файла : 2,75 Гбайт
Продолжительность : 1 ч. 37 м.
Общий поток : 4054 Кбит/сек
Название фильма : Artur.1981.x264.BDRip.(AVC).ExKinoRay
Дата кодирования : UTC 2013-02-27 16:28:50
Программа кодирования : mkvmerge v4.0.0 ('The Stars were mine') сборка от Jun 6 2010 16:18:42
Библиотека кодирования : libebml v1.0.0 + libmatroska v1.0.0

Видео
Идентификатор : 1
Формат : AVC
Формат/Информация : Advanced Video Codec
Профиль формата : High@L4.1
Параметр CABAC формата : Да
Параметр ReFrames формата : 8 кадров
Идентификатор кодека : V_MPEG4/ISO/AVC
Продолжительность : 1 ч. 37 м.
Битрейт : 2899 Кбит/сек
Ширина : 1024 пикселя
Высота : 576 пикселей
Соотношение сторон : 16:9
Частота кадров : 23,976 кадра/сек
Цветовое пространство : YUV
Субдискретизация насыщенности : 4:2:0
Битовая глубина : 8 бит
Тип развёртки : Прогрессивная
Бит/(Пиксели*Кадры) : 0.205
Размер потока : 1,91 Гбайт (70%)
Заголовок : Rip by Enigma-Vladislav71
Библиотека кодирования : x264 core 129 r2245 bc13772
Настройки программы : cabac=1 / ref=8 / deblock=1:-2:-2 / analyse=0x3:0x133 / me=umh / subme=11 / psy=1 / psy_rd=1.00:0.00 / mixed_ref=1 / me_range=48 / chroma_me=1 / trellis=2 / 8x8dct=1 / cqm=0 / deadzone=21,11 / fast_pskip=0 / chroma_qp_offset=-2 / threads=3 / lookahead_threads=1 / sliced_threads=0 / nr=0 / decimate=0 / interlaced=0 / bluray_compat=0 / constrained_intra=0 / bframes=8 / b_pyramid=2 / b_adapt=2 / b_bias=0 / direct=3 / weightb=1 / open_gop=0 / weightp=2 / keyint=240 / keyint_min=23 / scenecut=40 / intra_refresh=0 / rc_lookahead=40 / rc=2pass / mbtree=1 / bitrate=2899 / ratetol=1.0 / qcomp=0.60 / qpmin=10 / qpmax=51 / qpstep=4 / cplxblur=20.0 / qblur=0.5 / ip_ratio=1.40 / aq=2:1.00
Язык : English

Аудио #1
Идентификатор : 2
Формат : AC-3
Формат/Информация : Audio Coding 3
Расширение режима : CM (complete main)
Идентификатор кодека : A_AC3
Продолжительность : 1 ч. 37 м.
Вид битрейта : Постоянный
Битрейт : 192 Кбит/сек
Каналы : 2 канала
Расположение каналов : Front: L R
Частота : 48,0 КГц
Битовая глубина : 16 бит
Метод сжатия : С потерями
Размер потока : 133 Мбайт (5%)
Заголовок : ВГТРК
Язык : Russian

Аудио #2
Идентификатор : 3
Формат : AC-3
Формат/Информация : Audio Coding 3
Расширение режима : CM (complete main)
Идентификатор кодека : A_AC3
Продолжительность : 1 ч. 37 м.
Вид битрейта : Постоянный
Битрейт : 192 Кбит/сек
Каналы : 2 канала
Расположение каналов : Front: L R
Частота : 48,0 КГц
Битовая глубина : 16 бит
Метод сжатия : С потерями
Размер потока : 133 Мбайт (5%)
Заголовок : НТВ+
Язык : Russian

Аудио #3
Идентификатор : 4
Формат : AC-3
Формат/Информация : Audio Coding 3
Расширение режима : CM (complete main)
Идентификатор кодека : A_AC3
Продолжительность : 1 ч. 37 м.
Вид битрейта : Постоянный
Битрейт : 192 Кбит/сек
Каналы : 2 канала
Расположение каналов : Front: L R
Частота : 48,0 КГц
Битовая глубина : 16 бит
Метод сжатия : С потерями
Размер потока : 133 Мбайт (5%)
Заголовок : Михалев
Язык : Russian

Аудио #4
Идентификатор : 5
Формат : AC-3
Формат/Информация : Audio Coding 3
Расширение режима : CM (complete main)
Идентификатор кодека : A_AC3
Продолжительность : 1 ч. 37 м.
Вид битрейта : Постоянный
Битрейт : 192 Кбит/сек
Каналы : 2 канала
Расположение каналов : Front: L R
Частота : 48,0 КГц
Битовая глубина : 16 бит
Метод сжатия : С потерями
Размер потока : 133 Мбайт (5%)
Заголовок : Иванов
Язык : Russian

Аудио #5
Идентификатор : 6
Формат : AC-3
Формат/Информация : Audio Coding 3
Расширение режима : CM (complete main)
Идентификатор кодека : A_AC3
Продолжительность : 1 ч. 37 м.
Вид битрейта : Постоянный
Битрейт : 192 Кбит/сек
Каналы : 2 канала
Расположение каналов : Front: L R
Частота : 48,0 КГц
Битовая глубина : 16 бит
Метод сжатия : С потерями
Размер потока : 133 Мбайт (5%)
Заголовок : Бигыч
Язык : Russian

Аудио #6
Идентификатор : 7
Формат : AC-3
Формат/Информация : Audio Coding 3
Расширение режима : CM (complete main)
Идентификатор кодека : A_AC3
Продолжительность : 1 ч. 37 м.
Вид битрейта : Постоянный
Битрейт : 192 Кбит/сек
Каналы : 1 канал
Расположение каналов : Front: C
Частота : 48,0 КГц
Битовая глубина : 16 бит
Метод сжатия : С потерями
Размер потока : 133 Мбайт (5%)
Заголовок : английский
Язык : English

Текст #1
Идентификатор : 8
Формат : UTF-8
Идентификатор кодека : S_TEXT/UTF8
Идентификатор кодека/Информация : UTF-8 Plain Text
Заголовок : Gellard
Язык : Russian

Текст #2
Идентификатор : 9
Формат : UTF-8
Идентификатор кодека : S_TEXT/UTF8
Идентификатор кодека/Информация : UTF-8 Plain Text
Язык : English
Семпл Релиз от:

Авторы релиза:



Скачать Артур.Arthur.(Стив.Гордон).[1981.комедия.мелодрама.BDRip-AVC].[MVO]+[DVO]+[AVO]+[VO]+[Sub].torrent без регистрации
Золото ЗОЛОТАЯ РАЗДАЧА! СКАЧАННОЕ НЕ ЗАСЧИТЫВАЕТСЯ! Золото
Дата: Зарегистрирован   [ Тип: внутренний ] Как тут cкачать?
MAGNET ссылка
MAGNET ссылка


Скачать .torrent

14 KB

Статус: проверено DHT
Скачан: торрент - 108 раз, раздача полностью - 5 раз
Размер: 2,75 GB
Оценка:  - (Голосов: 0)
Поблагодарили: 0
Поделиться ссылкой на эту раздачу с друзьями:
В контактеFacebookОдноклассникиTwitterLivejournalМой МирLiveinternet
 

 
Показать сообщения:    


Вы не можете начинать темы
Вы не можете отвечать на сообщения
Вы не можете редактировать свои сообщения
Вы не можете удалять свои сообщения
Вы не можете голосовать в опросах
Вы не можете прикреплять файлы к сообщениям
Вы можете скачивать файлы