Loading...
Error

Скачать Потому что мы банда / The Crew (Эдриан Виториа) [2008, триллер, криминал, BDRip-AVC] [MVO]+[Sub] торрент без регистрации

 
Статистика раздачи
Размер:  3,34 GB   |    Скачан:  115 раз
Сидов:  1  [  0 KB/s  ]  
 
Автор Сообщение

Marsianka

[] 

Информация о фильме
Название: Потому что мы банда
Оригинальное название: The Crew
Год выхода: 2008
Жанр: триллер, криминал
Режиссер: Эдриан Виториа
В ролях: Стивен Грэм, Скот Уильямс, Рори МакКанн, Кенни Даути, Рози Феллнер, Филип Оливье, Тим Дантей, Нил Белл, Раза Джеффри, Мем Ферда, Френсис Маджи, Элисон Кэйн, Райан Орр, Рэйчел Хаслам, Пол Ли, Колин Дэвид Джексон, Даррен Уитфилд, Майк Долан, Мартин Чарт, Корделия Бугея, Горан Костич, Пол Дж. Дав, Уильям Джонсон, Майкл Томпсон, Брэд Уолл, Керри Уильямс, Крис Уилсон

О фильме:
Гед Бреннан не любит неразумный риск, его имя имеет вес в преступных кругах Ливерпуля, ведь Гед автор сотни тщательно спланированных, по сути, идеальных ограблений. Но в последнем деле все с самого начала пошло наперекос. Теперь вся так тщательно сбалансированная система Бреннана ввергнута в хаос, а сам он, столкнувшись с предательством, вынужден бороться за свою жизнь. В этой схватке каждый сам за себя, каждый выживает как может и каждый платит свою кровавую цену.



Страна: Великобритания
Продолжительность: 02:02:41
Перевод: Профессиональный многоголосый
Субтитры: Русские, английские
Дата релиза: 17.12.2012

Файл
Кодек: H.264
Качество: BDRip (AVC) (Blu-Ray Remux (1080p))
Видео: MPEG-4 AVC, 3000 Kбит/с, 1024x554, 23.976 кадр/с
Звук: Русский, английский (AC3, 6 ch, 448 Кбит/с)
Общее
Уникальный идентификатор : 194344704909357682354738394586143480610 (0x92356DBD6F6FE47AA9AF26EC9EAF5B22)
Полное имя : G:1Potomu.chto.my.banda.2008.x264.BDRip.(AVC).ExKinoRay.mkv
Формат : Matroska
Версия формата : Version 2
Размер файла : 3,34 Гбайт
Продолжительность : 2 ч. 2 м.
Общий поток : 3894 Кбит/сек
Название фильма : Potomu.chto.my.banda.2008.x264.BDRip.(AVC).ExKinoRay
Дата кодирования : UTC 2012-12-16 21:58:55
Программа кодирования : mkvmerge v4.0.0 ('The Stars were mine') сборка от Jun 6 2010 16:18:42
Библиотека кодирования : libebml v1.0.0 + libmatroska v1.0.0

Видео
Идентификатор : 1
Формат : AVC
Формат/Информация : Advanced Video Codec
Профиль формата : High@L4.1
Параметр CABAC формата : Да
Параметр ReFrames формата : 8 кадров
Идентификатор кодека : V_MPEG4/ISO/AVC
Продолжительность : 2 ч. 2 м.
Битрейт : 3000 Кбит/сек
Ширина : 1024 пикселя
Высота : 554 пикселя
Соотношение сторон : 16:9
Частота кадров : 23,976 кадра/сек
Цветовое пространство : YUV
Субдискретизация насыщенности : 4:2:0
Битовая глубина : 8 бит
Тип развёртки : Прогрессивная
Бит/(Пиксели*Кадры) : 0.221
Размер потока : 2,50 Гбайт (75%)
Заголовок : Rip by Enigma-Vladislav71
Библиотека кодирования : x264 core 92 r1510 33d382a
Настройки программы : cabac=1 / ref=8 / deblock=1:-2:-2 / analyse=0x3:0x133 / me=umh / subme=10 / psy=1 / psy_rd=1.00:0.00 / mixed_ref=1 / me_range=48 / chroma_me=1 / trellis=2 / 8x8dct=1 / cqm=0 / deadzone=21,11 / fast_pskip=0 / chroma_qp_offset=-2 / threads=3 / sliced_threads=0 / nr=0 / decimate=0 / interlaced=0 / constrained_intra=0 / bframes=8 / b_pyramid=2 / b_adapt=2 / b_bias=0 / direct=3 / wpredb=1 / wpredp=2 / keyint=240 / keyint_min=23 / scenecut=40 / intra_refresh=0 / rc=2pass / mbtree=0 / bitrate=3000 / ratetol=1.0 / qcomp=0.60 / qpmin=10 / qpmax=51 / qpstep=4 / cplxblur=20.0 / qblur=0.5 / ip_ratio=1.40 / pb_ratio=1.30 / aq=1:1.00
Язык : English
Default : Да
Forced : Нет

Аудио #1
Идентификатор : 2
Формат : AC-3
Формат/Информация : Audio Coding 3
Расширение режима : CM (complete main)
Идентификатор кодека : A_AC3
Продолжительность : 2 ч. 2 м.
Вид битрейта : Постоянный
Битрейт : 448 Кбит/сек
Каналы : 6 каналов
Расположение каналов : Front: L C R, Side: L R, LFE
Частота : 48,0 КГц
Битовая глубина : 16 бит
Метод сжатия : С потерями
Размер потока : 393 Мбайт (12%)
Язык : Russian
Default : Да
Forced : Нет

Аудио #2
Идентификатор : 3
Формат : AC-3
Формат/Информация : Audio Coding 3
Расширение режима : CM (complete main)
Идентификатор кодека : A_AC3
Продолжительность : 2 ч. 2 м.
Вид битрейта : Постоянный
Битрейт : 448 Кбит/сек
Каналы : 6 каналов
Расположение каналов : Front: L C R, Side: L R, LFE
Частота : 48,0 КГц
Битовая глубина : 16 бит
Метод сжатия : С потерями
Размер потока : 393 Мбайт (12%)
Язык : English
Default : Нет
Forced : Нет

Текст #1
Идентификатор : 4
Формат : UTF-8
Идентификатор кодека : S_TEXT/UTF8
Идентификатор кодека/Информация : UTF-8 Plain Text
Язык : Russian
Default : Да
Forced : Нет

Текст #2
Идентификатор : 5
Формат : UTF-8
Идентификатор кодека : S_TEXT/UTF8
Идентификатор кодека/Информация : UTF-8 Plain Text
Язык : English
Default : Нет
Forced : Нет
Семпл Релиз от:

Авторы релиза:



Скачать Потому.что.мы.банда.The.Crew.(Эдриан.Виториа).[2008.триллер.криминал.BDRip-AVC].[MVO]+[Sub].torrent без регистрации
Золото ЗОЛОТАЯ РАЗДАЧА! СКАЧАННОЕ НЕ ЗАСЧИТЫВАЕТСЯ! Золото
Дата: Зарегистрирован   [ Тип: внутренний ] Как тут cкачать?
MAGNET ссылка
MAGNET ссылка


Скачать .torrent

17 KB

Статус: проверено DHT
Скачан: торрент - 115 раз, раздача полностью - 4 раз
Размер: 3,34 GB
Оценка:  - (Голосов: 0)
Поблагодарили: 1
Поделиться ссылкой на эту раздачу с друзьями:
В контактеFacebookОдноклассникиTwitterLivejournalМой МирLiveinternet
 

 
Показать сообщения:    


Вы не можете начинать темы
Вы не можете отвечать на сообщения
Вы не можете редактировать свои сообщения
Вы не можете удалять свои сообщения
Вы не можете голосовать в опросах
Вы не можете прикреплять файлы к сообщениям
Вы можете скачивать файлы