Loading...
Error

Скачать Ливень / Hard Rain (Микаэл Саломон) [1998, боевик, триллер, драма, криминал, BDRip-AVC] [Dub]+[AVO]+[Оригинал]+[Sub] торрент без регистрации

 
Статистика раздачи
Размер:  3,2 GB   |    Скачан:  113 раз
Сидов:  1  [  0 KB/s  ]  
 
Автор Сообщение

Marsianka

[] 

Информация о фильме
Название: Ливень
Оригинальное название: Hard Rain
Год выхода: 1998
Жанр: боевик, триллер, драма, криминал
Режиссер: Микаэл Саломон
В ролях: Морган Фримен, Кристиан Слэйтер, Рэнди Куэйд, Минни Драйвер, Эдвард Аснер, Майкл А. Гурджиан, Дэнн Флорек, Рики Харрис, Марк Ролстон, Питер Мёрник

О фильме:
Вышедшая из берегов река становится причиной крупного наводнения в провинциальном американском городке. Мимо города следует инкассаторский автомобиль, перевозящий несколько миллионов долларов. Попав в засаду, неопытный охранник Том оказывается один на один с бандой «беспощадного Джима» и бушующей природной стихией. Выжить невозможно...



Страна: США, Германия, Дания, Франция, Япония, Великобритания, Новая Зеландия
Студия: Paramount Pictures, PolyGram Filmed Entertainment, BBC Television Centre
Продолжительность: 01:36:35
Перевод: Дублированный + авторский (одноголосый) (А. Гаврилов) + оригинал

Файл
Кодек: MPEG-4 AVC
Качество: BDRip-AVC
Видео: 3400 Кбит/с, 1024x428, 23.976 кадр/с
Звук:
Аудио #1: Русский (AC3, 6 ch, 448 Кбит/с) / Дублированный
Аудио #2: Русский (AC3, 6 ch, 448 Кбит/с) / Авторский (одноголосый) (А. Гаврилов)
Аудио #3: Английский (AC3, 6 ch, 448 Кбит/с)
Субтитры: Русские, украинские, английские, испанские

Семпл
General
Unique ID : 203582446783227172943166364945939754359 (0x99288D941ABA02EDAFEB564779ACED77)
Complete name : C:1Films CLiven.1998.x264.BDRip(AVC).MediaClub.mkv
Format : Matroska
Format version : Version 2
File size : 3.20 GiB
Duration : 1h 36mn
Overall bit rate : 4 745 Kbps
Movie name : = MediaClub = rip by Lefevr
Encoded date : UTC 2013-02-27 17:33:36
Writing application : mkvmerge v5.4.0 ('Piper') built on Mar 10 2012 13:34:39
Writing library : libebml v1.2.3 + libmatroska v1.3.0

Video
ID : 1
Format : AVC
Format/Info : Advanced Video Codec
Format profile : High@L4.1
Format settings, CABAC : Yes
Format settings, ReFrames : 9 frames
Codec ID : V_MPEG4/ISO/AVC
Duration : 1h 36mn
Bit rate : 3 400 Kbps
Width : 1 024 pixels
Height : 428 pixels
Display aspect ratio : 2.40:1
Frame rate : 23.976 fps
Color space : YUV
Chroma subsampling : 4:2:0
Bit depth : 8 bits
Scan type : Progressive
Bits/(Pixel*Frame) : 0.324
Stream size : 2.23 GiB (70%)
Title : Liven.1997.x264.BDRip(AVC).MediaClub
Writing library : x264 core 125 r2208 d9d2288
Encoding settings : cabac=1 / ref=9 / deblock=1:-2:-2 / analyse=0x3:0x133 / me=umh / subme=11 / psy=1 / psy_rd=1.00:0.05 / mixed_ref=1 / me_range=32 / chroma_me=1 / trellis=2 / 8x8dct=1 / cqm=0 / deadzone=21,11 / fast_pskip=0 / chroma_qp_offset=-3 / threads=6 / lookahead_threads=1 / sliced_threads=0 / nr=0 / decimate=0 / interlaced=0 / bluray_compat=0 / constrained_intra=0 / bframes=8 / b_pyramid=2 / b_adapt=2 / b_bias=0 / direct=3 / weightb=1 / open_gop=0 / weightp=2 / keyint=240 / keyint_min=23 / scenecut=40 / intra_refresh=0 / rc=2pass / mbtree=0 / bitrate=3400 / ratetol=1.0 / qcomp=0.60 / qpmin=0 / qpmax=69 / qpstep=4 / cplxblur=20.0 / qblur=0.5 / ip_ratio=1.40 / pb_ratio=1.30 / aq=1:0.80
Language : English
Default : Yes
Forced : No

Audio #1
ID : 2
Format : AC-3
Format/Info : Audio Coding 3
Mode extension : CM (complete main)
Codec ID : A_AC3
Duration : 1h 36mn
Bit rate mode : Constant
Bit rate : 448 Kbps
Channel(s) : 6 channels
Channel positions : Front: L C R, Side: L R, LFE
Sampling rate : 48.0 KHz
Bit depth : 16 bits
Compression mode : Lossy
Stream size : 310 MiB (9%)
Title : Track_1_Rus_DUB
Language : Russian
Default : Yes
Forced : No

Audio #2
ID : 3
Format : AC-3
Format/Info : Audio Coding 3
Mode extension : CM (complete main)
Codec ID : A_AC3
Duration : 1h 36mn
Bit rate mode : Constant
Bit rate : 448 Kbps
Channel(s) : 6 channels
Channel positions : Front: L C R, Side: L R, LFE
Sampling rate : 48.0 KHz
Bit depth : 16 bits
Compression mode : Lossy
Stream size : 310 MiB (9%)
Title : Track_2_Rus_VO_Gavriliov
Language : Russian
Default : No
Forced : No

Audio #3
ID : 4
Format : AC-3
Format/Info : Audio Coding 3
Mode extension : CM (complete main)
Codec ID : A_AC3
Duration : 1h 36mn
Bit rate mode : Constant
Bit rate : 448 Kbps
Channel(s) : 6 channels
Channel positions : Front: L C R, Side: L R, LFE
Sampling rate : 48.0 KHz
Bit depth : 16 bits
Compression mode : Lossy
Stream size : 310 MiB (9%)
Title : Track_3_Eng_Original
Language : English
Default : No
Forced : No

Text #1
ID : 5
Format : UTF-8
Codec ID : S_TEXT/UTF8
Codec ID/Info : UTF-8 Plain Text
Title : SUB_1_Rus
Language : Russian
Default : No
Forced : No

Text #2
ID : 6
Format : UTF-8
Codec ID : S_TEXT/UTF8
Codec ID/Info : UTF-8 Plain Text
Title : SUB_2_Ukr
Language : Ukrainian
Default : No
Forced : No

Text #3
ID : 7
Format : UTF-8
Codec ID : S_TEXT/UTF8
Codec ID/Info : UTF-8 Plain Text
Title : SUB_3_Eng_1
Language : English
Default : No
Forced : No

Text #4
ID : 8
Format : UTF-8
Codec ID : S_TEXT/UTF8
Codec ID/Info : UTF-8 Plain Text
Title : SUB_4_Eng_2
Language : English
Default : No
Forced : No

Text #5
ID : 9
Format : UTF-8
Codec ID : S_TEXT/UTF8
Codec ID/Info : UTF-8 Plain Text
Title : SUB_5_Spa
Language : Spanish
Default : No
Forced : No
Релиз от:

Автор рипа: Lefevr
За исходник спасибо: HDCLUB



Скачать Ливень.Hard.Rain.(Микаэл.Саломон).[1998.боевик.триллер.драма.криминал.BDRip-AVC].[Dub]+[AVO]+[Оригинал]+[Sub].torrent без регистрации
Золото ЗОЛОТАЯ РАЗДАЧА! СКАЧАННОЕ НЕ ЗАСЧИТЫВАЕТСЯ! Золото
Дата: Зарегистрирован   [ Тип: внутренний ] Как тут cкачать?
MAGNET ссылка
MAGNET ссылка


Скачать .torrent

17 KB

Статус: проверено DHT
Скачан: торрент - 113 раз, раздача полностью - 6 раз
Размер: 3,2 GB
Оценка:  - (Голосов: 0)
Поблагодарили: 1
Поделиться ссылкой на эту раздачу с друзьями:
В контактеFacebookОдноклассникиTwitterLivejournalМой МирLiveinternet
 

 
Показать сообщения:    


Вы не можете начинать темы
Вы не можете отвечать на сообщения
Вы не можете редактировать свои сообщения
Вы не можете удалять свои сообщения
Вы не можете голосовать в опросах
Вы не можете прикреплять файлы к сообщениям
Вы можете скачивать файлы