Loading...
Error

Скачать Звездный крейсер Галактика: План / The Plan (Эдвард Джеймс Олмос) [2009, фантастика, боевик, драма, приключения, BDRip-AVC] [MVO] торрент без регистрации

 
Статистика раздачи
Размер:  2,17 GB   |    Скачан:  160 раз
Сидов:  1  [  0 KB/s  ]  
 
Автор Сообщение

Marsianka

[] 

Информация о фильме
Название: Звездный крейсер Галактика: План
Оригинальное название: The Plan
Год выхода: 2009
Жанр: фантастика, боевик, драма, приключения
Режиссер: Эдвард Джеймс Олмос
В ролях: Тришиа Хелфер, Эдвард Джеймс Олмос, Грейс Пак, Каллум Кит Ренни, Дин Стокуэлл, Майкл Хоган, Кейт Вернон, Майкл Трукко, Рекха Шарма, Алекс Феррис

О фильме:
Сайлоны были созданы человеком. Они восстали. Они развивались. Они выглядят и чувствуют как люди. Некоторые из них запрограммированы думать, что они люди. Существует множество копий. И у них есть план....



Страна: США, David Eick Productions, R&D TV
Продолжительность: 01:51:22
Перевод: Профессиональный многоголосый
Дата релиза: 01.03.2013

Файл
Кодек: H.264
Качество: BDRip-AVC
Видео: MPEG-4 AVC, 1899 Кбит/с, 1024x576
Звук: Русский, английский(AC3, 6 ch, 448 Кбит/c)
Общее
Уникальный идентификатор : 214503625479735521922305660278164988655 (0xA15FE542B4C4DD26BD7A9845D6C0A2EF)
Полное имя : D:1Zvezdnyj.krejser.Galaktika.Plan.2009.x264.BDRip.(AVC).rondik.mkv
Формат : Matroska
Версия формата : Version 2
Размер файла : 2,17 Гбайт
Продолжительность : 1 ч. 51 м.
Общий поток : 2794 Кбит/сек
Название фильма : Zvezdnyj.krejser.Galaktika.Plan.2009.x264.BDRip.(AVC).rondik
Дата кодирования : UTC 2013-03-01 06:23:19
Программа кодирования : mkvmerge v4.0.0 ('The Stars were mine') сборка от Jun 6 2010 16:18:42
Библиотека кодирования : libebml v1.0.0 + libmatroska v1.0.0

Видео
Идентификатор : 1
Формат : AVC
Формат/Информация : Advanced Video Codec
Профиль формата : High@L4.1
Параметр CABAC формата : Да
Параметр ReFrames формата : 8 кадров
Идентификатор кодека : V_MPEG4/ISO/AVC
Продолжительность : 1 ч. 51 м.
Битрейт : 1899 Кбит/сек
Ширина : 1024 пикселя
Высота : 576 пикселей
Соотношение сторон : 16:9
Частота кадров : 23,976 кадра/сек
Цветовое пространство : YUV
Субдискретизация насыщенности : 4:2:0
Битовая глубина : 8 бит
Тип развёртки : Прогрессивная
Бит/(Пиксели*Кадры) : 0.134
Размер потока : 1,43 Гбайт (66%)
Заголовок : rondik
Библиотека кодирования : x264 core 129 r2245 bc13772
Настройки программы : cabac=1 / ref=8 / deblock=1:-2:-2 / analyse=0x3:0x133 / me=umh / subme=11 / psy=1 / psy_rd=1.00:0.00 / mixed_ref=1 / me_range=48 / chroma_me=1 / trellis=2 / 8x8dct=1 / cqm=0 / deadzone=21,11 / fast_pskip=0 / chroma_qp_offset=-2 / threads=3 / lookahead_threads=1 / sliced_threads=0 / nr=0 / decimate=0 / interlaced=0 / bluray_compat=0 / constrained_intra=0 / bframes=8 / b_pyramid=2 / b_adapt=2 / b_bias=0 / direct=3 / weightb=1 / open_gop=0 / weightp=2 / keyint=240 / keyint_min=23 / scenecut=40 / intra_refresh=0 / rc_lookahead=40 / rc=2pass / mbtree=1 / bitrate=1899 / ratetol=1.0 / qcomp=0.60 / qpmin=10 / qpmax=51 / qpstep=4 / cplxblur=20.0 / qblur=0.5 / ip_ratio=1.40 / aq=2:1.00
Язык : English

Аудио #1
Идентификатор : 2
Формат : AC-3
Формат/Информация : Audio Coding 3
Расширение режима : CM (complete main)
Идентификатор кодека : A_AC3
Продолжительность : 1 ч. 51 м.
Вид битрейта : Постоянный
Битрейт : 448 Кбит/сек
Каналы : 6 каналов
Расположение каналов : Front: L C R, Side: L R, LFE
Частота : 48,0 КГц
Битовая глубина : 16 бит
Метод сжатия : С потерями
Размер потока : 357 Мбайт (16%)
Язык : Russian

Аудио #2
Идентификатор : 3
Формат : AC-3
Формат/Информация : Audio Coding 3
Расширение режима : CM (complete main)
Идентификатор кодека : A_AC3
Продолжительность : 1 ч. 51 м.
Вид битрейта : Постоянный
Битрейт : 448 Кбит/сек
Каналы : 6 каналов
Расположение каналов : Front: L C R, Side: L R, LFE
Частота : 48,0 КГц
Битовая глубина : 16 бит
Метод сжатия : С потерями
Размер потока : 357 Мбайт (16%)
Язык : English
Семпл



Скачать Звездный.крейсер.Галактика.План.The.Plan.(Эдвард.Джеймс.Олмос).[2009.фантастика.боевик.драма.приключения.BDRip-AVC].[MVO].torrent без регистрации
Золото ЗОЛОТАЯ РАЗДАЧА! СКАЧАННОЕ НЕ ЗАСЧИТЫВАЕТСЯ! Золото
Дата: Зарегистрирован   [ Тип: внутренний ] Как тут cкачать?
MAGNET ссылка
MAGNET ссылка


Скачать .torrent

11 KB

Статус: проверено DHT
Скачан: торрент - 160 раз, раздача полностью - 170 раз
Размер: 2,17 GB
Оценка:  5 (Голосов: 1)
Поблагодарили: 4
Поделиться ссылкой на эту раздачу с друзьями:
В контактеFacebookОдноклассникиTwitterLivejournalМой МирLiveinternet
 

 
Показать сообщения:    


Вы не можете начинать темы
Вы не можете отвечать на сообщения
Вы не можете редактировать свои сообщения
Вы не можете удалять свои сообщения
Вы не можете голосовать в опросах
Вы не можете прикреплять файлы к сообщениям
Вы можете скачивать файлы