Loading...
Error

Скачать Жизнь прекрасна / Life Is Beautiful / La vita e bella (Роберто Бениньи) [1997, драма, мелодрама, комедия, военный, BDRip-AVC] [DVO]+[Sub] торрент без регистрации

 
Статистика раздачи
Размер:  3,06 GB   |    Скачан:  146 раз
Сидов:  1  [  0 KB/s  ]  
 
Автор Сообщение

Marsianka

[] 

Жизнь прекрасна / Life Is Beautiful / La vita e bella

«An unforgettable fable that proves love, family and imagination conquer all»

Информация о фильме
Название: Жизнь прекрасна
Оригинальное название: Life Is Beautiful / La vita e bella
Год выхода: 1997
Жанр: драма, мелодрама, комедия, военный
Режиссер: Роберто Бениньи
В ролях: Роберто Бениньи, Николетта Браски, Джорджио Кантарини, Джустино Дурано, Серджио Бини Бустрик, Мариса Паредес, Хорст Буххольц, Лидия Альфонси, Джулиана Лоджодиче, Америго Фонтани

О фильме:
Во время II Мировой войны в Италии в концлагерь были отправлены евреи, отец и его маленький сын. Жена, итальянка, добровольно последовала вслед за ними. В лагере отец сказал сыну, что все происходящее вокруг является очень большой игрой за приз в настоящий танк, который достанется тому мальчику, который сможет не попасться на глаза надзирателям. Он сделал все, чтобы сын поверил в игру и остался жив, прячась в бараке.



Страна: Италия
Продолжительность: 01:56:11
Перевод: Профессиональный (двухголосый, закадровый) [R5]

Файл
Кодек: x264
Качество: BDRip-AVC (Source: BDRemux 1080p)
Видео: 1100x596 (1.85:1), 2611 kbps, 23.976 fps, 0.162 bpp
Звук:
Russian; AC-3,384 kbps, 6 channels, 48.0 kHz
English; AC-3,384 kbps, 6 channels, 48.0 kHz
Italian; AC-3,384 kbps, 6 channels, 48.0 kHz
Субтитры: русские, английские, итальянские

Семпл

Автор рипа: bugariarmando
x264 [info]: frame I:1372 Avg QP:16.01 size:112707 PSNR Mean Y:47.57 U:49.85 V:51.18 Avg:48.33 Global:48.07
x264 [info]: frame P:33633 Avg QP:19.84 size: 33182 PSNR Mean Y:44.56 U:47.27 V:48.70 Avg:45.31 Global:44.92
x264 [info]: frame B:132132 Avg QP:23.78 size: 7602 PSNR Mean Y:43.28 U:47.02 V:48.56 Avg:44.31 Global:43.93
x264 [info]: consecutive B-frames: 0.6% 0.8% 5.6% 18.3% 16.3% 53.5% 3.8% 0.7% 0.4%
x264 [info]: mb I I16..4: 2.8% 73.7% 23.6%
x264 [info]: mb P I16..4: 0.5% 6.0% 1.8% P16..4: 37.7% 27.7% 17.4% 0.0% 0.0% skip: 8.9%
x264 [info]: mb B I16..4: 0.0% 0.4% 0.2% B16..8: 39.5% 10.1% 3.1% direct: 4.0% skip:42.6% L0:40.1% L1:44.4% BI:15.5%
x264 [info]: 8x8 transform intra:71.8% inter:58.8%
x264 [info]: direct mvs spatial:100.0% temporal:0.0%
x264 [info]: coded y,uvDC,uvAC intra: 88.8% 87.0% 67.4% inter: 20.5% 15.3% 4.4%
x264 [info]: i16 v,h,dc,p: 48% 15% 9% 28%
x264 [info]: i8 v,h,dc,ddl,ddr,vr,hd,vl,hu: 18% 9% 6% 8% 12% 13% 11% 12% 11%
x264 [info]: i4 v,h,dc,ddl,ddr,vr,hd,vl,hu: 27% 7% 4% 7% 12% 13% 11% 10% 10%
x264 [info]: i8c dc,h,v,p: 43% 19% 22% 15%
x264 [info]: Weighted P-Frames: Y:1.8%
x264 [info]: ref P L0: 43.1% 12.0% 19.6% 6.0% 6.3% 3.8% 4.3% 2.0% 2.6% 0.2% 0.0%
x264 [info]: ref B L0: 80.1% 10.0% 3.9% 2.1% 1.4% 1.3% 0.8% 0.4%
x264 [info]: ref B L1: 95.1% 4.9%
x264 [info]: SSIM Mean Y:0.9814898 (17.326db)
x264 [info]: PSNR Mean Y:43.576 U:47.097 V:48.608 Avg:44.541 Global:44.136 kb/s:2611.00
Общее
Уникальный идентификатор : 189722903037527687848320630326056533098 (0x8EBB4D508060D3E6A37E70F7D2713C6A)
Полное имя : Life.Is.Beautiful.barm.mkv
Формат : Matroska
Версия формата : Version 2
Размер файла : 3,06 Гбайт
Продолжительность : 1 ч. 56 м.
Общий поток : 3766 Кбит/сек
Название фильма : Life Is Beautiful 1997
Дата кодирования : UTC 2010-11-04 19:51:58
Программа кодирования : mkvmerge v3.4.0 ('Rapunzel') сборка от May 15 2010 09:38:20
Библиотека кодирования : libebml v0.8.0 + libmatroska v0.9.0
Attachment : Yes

Видео
Идентификатор : 1
Формат : AVC
Формат/Информация : Advanced Video Codec
Профиль формата : High@L4.1
Параметр CABAC формата : Да
Параметр ReFrames формата : 9 кадров
Идентификатор кодека : V_MPEG4/ISO/AVC
Продолжительность : 1 ч. 56 м.
Битрейт : 2539 Кбит/сек
Ширина : 1100 пикселей
Высота : 596 пикселей
Соотношение сторон : 1,85:1
Режим частоты кадров : Постоянный
Частота кадров : 23,976 кадра/сек
Цветовое пространство : YUV
Субдискретизация насыщенности : 4:2:0
Битовая глубина : 8 бит
Тип развёртки : Прогрессивная
Бит/(Пиксели*Кадры) : 0.162
Размер потока : 2,06 Гбайт (67%)
Заголовок : Life Is Beautiful
Библиотека кодирования : x264 core 107 r1745 4785e8e
Настройки программы : cabac=1 / ref=9 / deblock=1:-2:-1 / analyse=0x3:0x113 / me=umh / subme=10 / psy=1 / psy_rd=1.08:0.05 / mixed_ref=1 / me_range=32 / chroma_me=1 / trellis=2 / 8x8dct=1 / cqm=0 / deadzone=21,11 / fast_pskip=1 / chroma_qp_offset=-3 / threads=6 / sliced_threads=0 / nr=0 / decimate=1 / interlaced=0 / constrained_intra=0 / bframes=8 / b_pyramid=2 / b_adapt=2 / b_bias=0 / direct=3 / weightb=1 / open_gop=0 / weightp=2 / keyint=250 / keyint_min=23 / scenecut=40 / intra_refresh=0 / rc_lookahead=60 / rc=crf / mbtree=1 / crf=19.0 / qcomp=0.70 / qpmin=10 / qpmax=51 / qpstep=4 / ip_ratio=1.40 / aq=2:1.00 / zones=162087,167136,q=30
Язык : English
Default : Нет
Forced : Нет
Коэффициенты матрицы : BT.709

Аудио #1
Идентификатор : 2
Формат : AC-3
Формат/Информация : Audio Coding 3
Расширение режима : CM (complete main)
Параметр Endianness формата : Big
Идентификатор кодека : A_AC3
Продолжительность : 1 ч. 56 м.
Вид битрейта : Постоянный
Битрейт : 384 Кбит/сек
Каналы : 6 каналов
Расположение каналов : Front: L C R, Side: L R, LFE
Частота : 48,0 КГц
Битовая глубина : 16 бит
Метод сжатия : С потерями
Размер потока : 319 Мбайт (10%)
Заголовок : MVO, R5, 48 kHz, AC3, 3/2 (L,C,R,l,r) + LFE ch, ~ 384.00 kbps
Язык : Russian
Default : Да
Forced : Нет

Аудио #2
Идентификатор : 3
Формат : AC-3
Формат/Информация : Audio Coding 3
Расширение режима : CM (complete main)
Параметр Endianness формата : Big
Идентификатор кодека : A_AC3
Продолжительность : 1 ч. 56 м.
Вид битрейта : Постоянный
Битрейт : 384 Кбит/сек
Каналы : 6 каналов
Расположение каналов : Front: L C R, Side: L R, LFE
Частота : 48,0 КГц
Битовая глубина : 16 бит
Метод сжатия : С потерями
Размер потока : 319 Мбайт (10%)
Заголовок : English, 48 kHz, AC3, 3/2 (L,C,R,l,r) + LFE ch, ~ 384.00 kbps
Язык : English
Default : Нет
Forced : Нет

Аудио #3
Идентификатор : 4
Формат : AC-3
Формат/Информация : Audio Coding 3
Расширение режима : CM (complete main)
Параметр Endianness формата : Big
Идентификатор кодека : A_AC3
Продолжительность : 1 ч. 56 м.
Вид битрейта : Постоянный
Битрейт : 384 Кбит/сек
Каналы : 6 каналов
Расположение каналов : Front: L C R, Side: L R, LFE
Частота : 48,0 КГц
Битовая глубина : 16 бит
Метод сжатия : С потерями
Размер потока : 319 Мбайт (10%)
Заголовок : Original, 48 kHz, AC3, 3/2 (L,C,R,l,r) + LFE ch, ~ 384.00 kbps
Язык : Italian
Default : Нет
Forced : Нет

Текст #1
Идентификатор : 5
Формат : UTF-8
Идентификатор кодека : S_TEXT/UTF8
Идентификатор кодека/Информация : UTF-8 Plain Text
Язык : Russian
Default : Нет
Forced : Нет

Текст #2
Идентификатор : 6
Формат : UTF-8
Идентификатор кодека : S_TEXT/UTF8
Идентификатор кодека/Информация : UTF-8 Plain Text
Язык : English
Default : Нет
Forced : Нет

Текст #3
Идентификатор : 7
Формат : UTF-8
Идентификатор кодека : S_TEXT/UTF8
Идентификатор кодека/Информация : UTF-8 Plain Text
Язык : Italian
Default : Нет
Forced : Нет

Меню
00:00:00.000 : en:Chapter 1
00:05:41.883 : en:Chapter 2
00:11:20.721 : en:Chapter 3
00:16:43.544 : en:Chapter 4
00:20:43.282 : en:Chapter 5
00:25:21.561 : en:Chapter 6
00:32:53.513 : en:Chapter 7
00:35:57.196 : en:Chapter 8
00:39:55.476 : en:Chapter 9
00:47:40.440 : en:Chapter 10
00:51:17.657 : en:Chapter 11
00:54:11.831 : en:Chapter 12
00:56:16.456 : en:Chapter 13
01:02:07.305 : en:Chapter 14
01:09:36.255 : en:Chapter 15
01:13:45.003 : en:Chapter 16
01:19:49.367 : en:Chapter 17
01:22:26.024 : en:Chapter 18
01:29:54.472 : en:Chapter 19
01:38:55.012 : en:Chapter 20
01:52:42.881 : en:Chapter 21



Скачать Жизнь.прекрасна.Life.Is.Beautiful.La.vita.e.bella.(Роберто.Бениньи).[1997.драма.мелодрама.комедия.военный.BDRip-AVC].[DVO]+[Sub].torrent без регистрации
Золото ЗОЛОТАЯ РАЗДАЧА! СКАЧАННОЕ НЕ ЗАСЧИТЫВАЕТСЯ! Золото
Дата: Зарегистрирован   [ Тип: внутренний ] Как тут cкачать?
MAGNET ссылка
MAGNET ссылка


Скачать .torrent

16 KB

Статус: проверено DHT
Скачан: торрент - 146 раз, раздача полностью - 148 раз
Размер: 3,06 GB
Оценка:  - (Голосов: 0)
Поблагодарили: 2
Поделиться ссылкой на эту раздачу с друзьями:
В контактеFacebookОдноклассникиTwitterLivejournalМой МирLiveinternet
 

 
Показать сообщения:    


Вы не можете начинать темы
Вы не можете отвечать на сообщения
Вы не можете редактировать свои сообщения
Вы не можете удалять свои сообщения
Вы не можете голосовать в опросах
Вы не можете прикреплять файлы к сообщениям
Вы можете скачивать файлы