Loading...
Error

Скачать Параллельный мир / Клёвый мир / Cool World (Ральф Бакши) [1992, Мультфильм, фэнтези, комедия, HDTVRip] [AVC] [FilmoRay VS Sheikn] [MVO] + [DVO] + [AVO] торрент без регистрации

 
Статистика раздачи
Размер:  2,87 GB   |    Скачан:  4594 раза
Сидов:  1  [  0 KB/s  ]  
 
Автор Сообщение

Sheikn

[] 

Информация о фильме
Название: Параллельный мир (Клёвый мир)
Оригинальное название: Cool World
Год выхода: 1992
Жанр: Мультфильм, фэнтези, комедия
Режиссер: Ральф Бакши
В ролях: Брэд Питт, Ким Бейсингер, Гэбриел Бирн, Мишель Абрамс, Дирдри ОКоннелл, Янни Бренн, Уильям Френкфазер, Грег Коллинз, Морис ЛаМарш, Джои Камен, Майкл Дэвид Лэлли, Кэрри Хэмилтон, Стефен Ворф, Мюррэй Подвал, Дженин Дженнингс, Грегори Снегофф, Кэнди Мило, Чарльз Адлер, Патрик Пинни, Фрэнк Синатра мл., Кевин Л. Джексон, Пол Бен-Виктор, Биг Янк, Бобби Белл, Гари Фридкин, Клэр Хоак, Антонио Хойос, Лерой Томпсон, Эмма Блэкуэлл, Лоррэйн Коте, Джинкс Даусон, Скотт Кирквуд, Мэгги Росвэлл

О фильме: Автор серии комиксов художник Джек Дибс оказывается в придуманном им мире и теряет голову от собственного персонажа, чрезвычайно сексапильной Холли Вуд. Холли сгорает от желания превратиться из мультяшки в реальную женщину, а единственный путь к этому переспать с живым мужчиной. Поначалу Дибс думает, что сходит с ума, но присутствие в рисованном мире другого человека, детектива Френка Харриса, посланного на поиски пропавшего художника, заставляет его поверить в реальность происходящего



Страна: США / Paramount Pictures, Rough Draft Studios
Продолжительность: 01:37:27
Перевод: Профессиональный, двухголосый / Профессиональный, многоголосый (НТВ+ (телеканал КиноХит)) / Авторский, одноголосый (Алексей Михалёв)
Дата релиза: 01.03.2013

Файл
Кодек: MPEG-4 AVC
Качество: HDTVRip (AVC)
Видео: 1024x576, 2930 Кбит/с
Звук: ПД (АС3, 6 ch, 448 Кбит/с) / ПМ (НТВ+), АО (А Михалёв) (АС3, 2 ch, 192 Кбит/с) / Английский (АС3, 6 ch, 448 Кбит/с)

Семпл

Unique ID : 234679562903392867095199835914320915380 (0xB08DA3C6DC894D3BB8F9929C0472ABB4)
Complete name : Parallelnyj.mir.1992.х264.HDTVRip.(AVC).Filmoray.Sheikn.mkv
Format : Matroska
Format version : Version 2
File size : 2.87 GiB
Duration : 1h 37mn
Overall bit rate : 4 212 Kbps
Encoded date : UTC 2013-01-07 18:03:28
Writing application : mkvmerge v4.0.0 ('The Stars were mine') сборка от Jun 6 2010 16:18:42
Writing library : libebml v1.0.0 + libmatroska v1.0.0
Video #1
ID : 1
Format : AVC
Format/Info : Advanced Video Codec
Format profile : High@L4.1
Format settings, CABAC : Yes
Format settings, ReFrames : 6 frames
Codec ID : V_MPEG4/ISO/AVC
Duration : 1h 37mn
Bit rate : 2 930 Kbps
Width : 1 024 pixels
Height : 576 pixels
Display aspect ratio : 16:9
Frame rate mode : Constant
Frame rate : 25.000 fps
Color space : YUV
Chroma subsampling : 4:2:0
Bit depth : 8 bits
Scan type : Progressive
Bits/(Pixel*Frame) : 0.199
Stream size : 1.94 GiB (68%)
Writing library : x264 core 119 r2106 07efeb4
Encoding settings : cabac=1 / ref=6 / deblock=1:-2:-2 / analyse=0x3:0x113 / me=hex / subme=8 / psy=1 / psy_rd=1.00:0.00 / mixed_ref=1 / me_range=16 / chroma_me=1 / trellis=2 / 8x8dct=1 / cqm=0 / deadzone=21,11 / fast_pskip=1 / chroma_qp_offset=-2 / threads=6 / sliced_threads=0 / nr=0 / decimate=1 / interlaced=0 / bluray_compat=0 / constrained_intra=0 / bframes=2 / b_pyramid=2 / b_adapt=1 / b_bias=0 / direct=1 / weightb=1 / open_gop=0 / weightp=1 / keyint=250 / keyint_min=25 / scenecut=40 / intra_refresh=0 / rc_lookahead=30 / rc=2pass / mbtree=1 / bitrate=2930 / ratetol=1.0 / qcomp=0.60 / qpmin=0 / qpmax=69 / qpstep=4 / cplxblur=20.0 / qblur=0.5 / ip_ratio=1.40 / aq=1:1.00
Default : No
Forced : No
Audio #2
ID : 2
Format : AC-3
Format/Info : Audio Coding 3
Mode extension : CM (complete main)
Format settings, Endianness : Big
Codec ID : A_AC3
Duration : 1h 37mn
Bit rate mode : Constant
Bit rate : 448 Kbps
Channel(s) : 6 channels
Channel positions : Front: L C R, Side: L R, LFE
Sampling rate : 48.0 KHz
Bit depth : 16 bits
Compression mode : Lossy
Stream size : 312 MiB (11%)
Title : Профессиональный, двухголосый
Language : Russian
Default : No
Forced : No
Audio #3
ID : 3
Format : AC-3
Format/Info : Audio Coding 3
Mode extension : CM (complete main)
Format settings, Endianness : Big
Codec ID : A_AC3
Duration : 1h 37mn
Bit rate mode : Constant
Bit rate : 192 Kbps
Channel(s) : 2 channels
Channel positions : Front: L R
Sampling rate : 48.0 KHz
Bit depth : 16 bits
Compression mode : Lossy
Delay relative to video : 2s 800ms
Stream size : 134 MiB (5%)
Title : Профессиональный, многоголосый НТВ+ (телеканал КиноХит)
Language : Russian
Default : Yes
Forced : No
Audio #4
ID : 4
Format : AC-3
Format/Info : Audio Coding 3
Mode extension : CM (complete main)
Format settings, Endianness : Big
Codec ID : A_AC3
Duration : 1h 37mn
Bit rate mode : Constant
Bit rate : 192 Kbps
Channel(s) : 2 channels
Channel positions : Front: L R
Sampling rate : 48.0 KHz
Bit depth : 16 bits
Compression mode : Lossy
Stream size : 134 MiB (5%)
Title : Авторский, одноголосый (Алексей Михалёв)
Language : Russian
Default : No
Forced : No
Audio #5
ID : 5
Format : AC-3
Format/Info : Audio Coding 3
Mode extension : CM (complete main)
Format settings, Endianness : Big
Codec ID : A_AC3
Duration : 1h 37mn
Bit rate mode : Constant
Bit rate : 448 Kbps
Channel(s) : 6 channels
Channel positions : Front: L C R, Side: L R, LFE
Sampling rate : 48.0 KHz
Bit depth : 16 bits
Compression mode : Lossy
Stream size : 312 MiB (11%)
Title : Оригинал
Language : English
Default : No
Forced : No

* Имя Холли Вуд пишется по английски как Holli Would, но есть и другой вариант написания: Holly Wood, что является отсылкой к широко известному району Лос-Анджелеса под название

Награды:

Премия канала «MTV», 1993 год
Номинации (1):
- Самая желанная женщина (Ким Бейсингер)

Золотая малина, 1993 год
Номинации (1):
- Худшая женская роль (Ким Бейсингер)
Релиз от:



Скачать Параллельный.мир.Клёвый.мир.Cool.World.(Ральф.Бакши).[1992.Мультфильм.фэнтези.комедия.HDTVRip].[AVC].[FilmoRay.VS.Sheikn].[MVO].+.[DVO].+.[AVO].torrent без регистрации
Золото ЗОЛОТАЯ РАЗДАЧА! СКАЧАННОЕ НЕ ЗАСЧИТЫВАЕТСЯ! Золото
Дата: Зарегистрирован   [ Тип: внутренний ] Как тут cкачать?
MAGNET ссылка
MAGNET ссылка


Скачать .torrent

29 KB

Статус: проверено DHT
Скачан: торрент - 4594 раз, раздача полностью - 165 раз
Размер: 2,87 GB
Оценка:  5 (Голосов: 1)
Поблагодарили: 2
Поделиться ссылкой на эту раздачу с друзьями:
В контактеFacebookОдноклассникиTwitterLivejournalМой МирLiveinternet
 

 
Показать сообщения:    


Вы не можете начинать темы
Вы не можете отвечать на сообщения
Вы не можете редактировать свои сообщения
Вы не можете удалять свои сообщения
Вы не можете голосовать в опросах
Вы не можете прикреплять файлы к сообщениям
Вы можете скачивать файлы