Loading...
Error

Скачать Американская девственница / American Virgin (Клер Килнер) [2009, комедия, BDRip-AVC] [DVO] торрент без регистрации

 
Статистика раздачи
Размер:  1,44 GB   |    Скачан:  189 раз
Сидов:  1  [  0 KB/s  ]  
 
Автор Сообщение

Marsianka

[] 

Американская девственница / American Virgin (2009) BDRip-AVC

Информация о фильме
Название: Американская девственница
Оригинальное название: American Virgin
Год выхода: 2009
Жанр: комедия
Режиссер: Клер Килнер

В ролях: Роб Шнайдер, Дженна Деван, Чейз Райан Джеффри, Брианна Дэвис, Элан Мосс-Бакрак, Эшли Шнайдер, Бо Бёрнэм, Жаклин Эвола, Сара Хабель, Дэвид Фрэнк Флетчер Джейар

О фильме: После совершенно отвязной попойки, случившейся впервые в её жизни, новоиспечённая ученица колледжа узнала, что её выкрутасы заснял на видео некий вульгарный режиссёр. Теперь ей и её единомышленникам из группы не признающих секс до брака придётся приложить немало усилий, чтобы добыть компрометирующие материалы и не лишиться стипендии.



Страна: США
Продолжительность: 01:24:00
Перевод: Профессиональный (двухголосый закадровый)

Файл
Кодек: x.264
Качество: BDRip-AVC
Видео: 1024x576 (16:9), 24 fps, 2000 kbps, 0.141 bit/pixel
Звук: 48 kHz, AC3 Dolby Digital, 6 ch, ~448.00 kbps

&
Общее
Уникальный идентификатор : 229547350900142334425787459002953969631 (0xACB136305AD0865A837E3E144A052FDF)
Полное имя : D:American Virgin.2009.BDRip-AVC.mkv
Формат : Matroska
Версия формата : Version 4 / Version 2
Размер файла : 1,44 Гбайт
Продолжительность : 1 ч. 24 м.
Общий поток : 2434 Кбит/сек
Название фильма : Американская девственница / American Virgin (2009) BDRip-AVC
Дата кодирования : UTC 2013-03-01 11:15:16
Программа кодирования : mkvmerge v6.0.0 ('Coming Up For Air') built on Jan 20 2013 09:52:00
Библиотека кодирования : libebml v1.3.0 + libmatroska v1.4.0

Видео
Идентификатор : 1
Формат : AVC
Формат/Информация : Advanced Video Codec
Профиль формата : High@L4.1
Параметр CABAC формата : Да
Параметр ReFrames формата : 13 кадров
Идентификатор кодека : V_MPEG4/ISO/AVC
Продолжительность : 1 ч. 24 м.
Битрейт : 2000 Кбит/сек
Ширина : 1024 пикселя
Высота : 576 пикселей
Соотношение сторон : 16:9
Режим частоты кадров : Постоянный
Частота кадров : 24,000 кадра/сек
Цветовое пространство : YUV
Субдискретизация насыщенности : 4:2:0
Битовая глубина : 8 бит
Тип развёртки : Прогрессивная
Бит/(Пиксели*Кадры) : 0.141
Размер потока : 1,15 Гбайт (80%)
Библиотека кодирования : x264 core 129 r2245 bc13772
Настройки программы : cabac=1 / ref=13 / deblock=1:-3:-3 / analyse=0x3:0x133 / me=umh / subme=10 / psy=1 / psy_rd=1.10:0.30 / mixed_ref=1 / me_range=48 / chroma_me=1 / trellis=2 / 8x8dct=1 / cqm=0 / deadzone=21,11 / fast_pskip=0 / chroma_qp_offset=-4 / threads=13 / lookahead_threads=2 / sliced_threads=0 / nr=0 / decimate=1 / interlaced=0 / bluray_compat=0 / constrained_intra=0 / bframes=10 / b_pyramid=2 / b_adapt=2 / b_bias=0 / direct=3 / weightb=1 / open_gop=0 / weightp=2 / keyint=240 / keyint_min=22 / scenecut=40 / intra_refresh=0 / rc_lookahead=40 / rc=2pass / mbtree=1 / bitrate=2000 / ratetol=1.0 / qcomp=0.60 / qpmin=0 / qpmax=69 / qpstep=4 / cplxblur=20.0 / qblur=0.5 / ip_ratio=1.40 / aq=1:1.00
Default : Да
Forced : Нет

Аудио
Идентификатор : 2
Формат : AC-3
Формат/Информация : Audio Coding 3
Расширение режима : CM (complete main)
Параметр Endianness формата : Big
Идентификатор кодека : A_AC3
Продолжительность : 1 ч. 24 м.
Вид битрейта : Постоянный
Битрейт : 448 Кбит/сек
Каналы : 6 каналов
Расположение каналов : Front: L C R, Side: L R, LFE
Частота : 48,0 КГц
Битовая глубина : 16 бит
Метод сжатия : С потерями
Размер потока : 272 Мбайт (18%)
Заголовок : Профессиональный (двухголосый закадровый)
Язык : Russian
Default : Да
Forced : Нет



Скачать Американская.девственница.American.Virgin.(Клер.Килнер).[2009.комедия.BDRip-AVC].[DVO].torrent без регистрации
Золото ЗОЛОТАЯ РАЗДАЧА! СКАЧАННОЕ НЕ ЗАСЧИТЫВАЕТСЯ! Золото
Дата: Зарегистрирован   [ Тип: внутренний ] Как тут cкачать?
MAGNET ссылка
MAGNET ссылка


Скачать .torrent

15 KB

Статус: проверено DHT
Скачан: торрент - 189 раз, раздача полностью - 52 раз
Размер: 1,44 GB
Оценка:  5 (Голосов: 1)
Поблагодарили: 1
Поделиться ссылкой на эту раздачу с друзьями:
В контактеFacebookОдноклассникиTwitterLivejournalМой МирLiveinternet
 

 
Показать сообщения:    


Вы не можете начинать темы
Вы не можете отвечать на сообщения
Вы не можете редактировать свои сообщения
Вы не можете удалять свои сообщения
Вы не можете голосовать в опросах
Вы не можете прикреплять файлы к сообщениям
Вы можете скачивать файлы