Loading...
Error

Скачать Беги, Лола, беги / Lola rennt (Том Тиквер) [1998, триллер, криминал, BDRip - AVC] [MVO] торрент без регистрации

 
Статистика раздачи
Размер:  1,61 GB   |    Скачан:  116 раз

Полного источника не было: 21 минута

 
Автор Сообщение

and77200

[] 


Lola rennt

«The difference between life or death can be decided in a split second.»

Год выпуска: 1998
Страна: Германия
Жанр: боевик, триллер
Продолжительность: 01:19:43
Перевод: Профессиональный (многоголосый, закадровый)
Режиссер: Том Тыквер / Tom Tykwer

В ролях: Франка Потенте (Lola), Мориц Бляйбтрой (Manni), Херберт Кнауп (Vater), Нина Петри (Jutta Hansen), Армин Роде (Herr Schuster), Йоахим Круль (Norbert von Au), Людгер Пистор (Herr Meier), Сюзанна фон Борсоди (Frau Jäger), Себастьян Шиппер (Mike), Джулия Линдиг (Doris), Ларс Рудольф (Herr Kruse)
Описание: Лола и Манни живут в Берлине и безумно любят друг друга. И когда Манни - маленький курьер большого бандита - теряет сумку с деньгами своего босса, спасти его может только Лола.
Но на то, чтобы раздобыть совсем не маленькую сумму в сто тысяч марок, у девушки есть только 20 минут. Каждая секунда может означать разницу между жизнью и смертью. Так что, как следует отдышитесь и приготовьтесь к головокружительной и опасной пробежке в компании со стремительной Лолой. В пути вас ждет не один сюрприз...


Качество: BDRip - AVC
Контейнер: MKV
Видео кодек: AVC
Аудио кодек: AC3

Видео: AVC, 1024x552 (1.855), 2550 kbps, 23,976 fps, 0,188 bpp
Аудио: русский / AC3 / 5.1 / 48 kHz / 384 kbps / 16 bit
Рип: and77200



General
Complete name : E:\торрент\Беги,Лола,беги.(1998) BDRip -AVC.mkv
Format : Matroska
File size : 1.61 GiB
Duration : 1h 19mn
Overall bit rate : 2 889 Kbps
Encoded date : UTC 2013-02-26 11:05:13
Writing application : mkvmerge v5.7.0 ('The Whirlwind') built on Jul 8 2012 20:08:51
Writing library : libebml v1.2.3 + libmatroska v1.3.0

Video
ID : 1
Format : AVC
Format/Info : Advanced Video Codec
Format profile : High@L4.1
Format settings, CABAC : Yes
Format settings, ReFrames : 5 frames
Muxing mode : Container profile=Unknown@4.1
Codec ID : V_MPEG4/ISO/AVC
Duration : 1h 19mn
Bit rate : 2 447 Kbps
Nominal bit rate : 2 550 Kbps
Width : 1 024 pixels
Height : 552 pixels
Display aspect ratio : 1.855
Frame rate : 23.976 fps
Resolution : 24 bits
Colorimetry : 4:2:0
Scan type : Progressive
Bits/(Pixel*Frame) : 0.181
Stream size : 1.36 GiB (85%)
Writing library : x264 core 125 r2208 d9d2288
Encoding settings : cabac=1 / ref=5 / deblock=1:0:0 / analyse=0x3:0x133 / me=umh / subme=9 / psy=1 / psy_rd=1.00:0.00 / mixed_ref=1 / me_range=32 / chroma_me=1 / trellis=2 / 8x8dct=1 / cqm=0 / deadzone=21,11 / fast_pskip=1 / chroma_qp_offset=-2 / threads=3 / lookahead_threads=1 / sliced_threads=0 / nr=0 / decimate=1 / interlaced=0 / bluray_compat=0 / constrained_intra=0 / bframes=5 / b_pyramid=2 / b_adapt=2 / b_bias=0 / direct=1 / weightb=1 / open_gop=0 / weightp=2 / keyint=250 / keyint_min=23 / scenecut=40 / intra_refresh=0 / rc_lookahead=60 / rc=abr / mbtree=1 / bitrate=2550 / ratetol=1.0 / qcomp=0.60 / qpmin=0 / qpmax=69 / qpstep=4 / ip_ratio=1.40 / aq=1:1.00

Audio
ID : 2
Format : AC-3
Format/Info : Audio Coding 3
Codec ID : A_AC3
Duration : 1h 19mn
Bit rate mode : Constant
Bit rate : 384 Kbps
Channel(s) : 6 channels
Channel positions : Front: L C R, Surround: L R, LFE
Sampling rate : 48.0 KHz
Stream size : 219 MiB (13%)
Title : Многоголосый закадровый
Language : Russian

Menu
00:00:00.000 : en:Chapter 00
00:04:37.568 : en:Chapter 01
00:11:36.612 : en:Chapter 02
00:15:02.943 : en:Chapter 03
00:19:22.452 : en:Chapter 04
00:23:21.942 : en:Chapter 05
00:26:59.576 : en:Chapter 06
00:34:37.950 : en:Chapter 07
00:38:25.970 : en:Chapter 08
00:42:24.750 : en:Chapter 09
00:49:34.554 : en:Chapter 10
00:54:29.432 : en:Chapter 11
00:58:27.420 : en:Chapter 12
01:01:35.733 : en:Chapter 13
01:04:29.532 : en:Chapter 14
01:09:15.734 : en:Chapter 15
01:12:55.954 : en:Chapter 16
01:15:23.560 : en:Chapter 17
01:19:30.140 : en:Chapter 18
Оформление by and77200



Скачать Беги.Лола.беги.Lola.rennt.(Том.Тиквер).[1998.триллер.криминал.BDRip.-.AVC].[MVO].torrent без регистрации
Золото ЗОЛОТАЯ РАЗДАЧА! СКАЧАННОЕ НЕ ЗАСЧИТЫВАЕТСЯ! Золото
Дата: Зарегистрирован   [ Тип: внутренний ] Как тут cкачать?
MAGNET ссылка
MAGNET ссылка


Скачать .torrent

65 KB

Статус: проверено DHT
Скачан: торрент - 116 раз, раздача полностью - 4 раз
Размер: 1,61 GB
Оценка:  - (Голосов: 0)
Поблагодарили: 6
Поделиться ссылкой на эту раздачу с друзьями:
В контактеFacebookОдноклассникиTwitterLivejournalМой МирLiveinternet
 

 
Показать сообщения:    


Вы не можете начинать темы
Вы не можете отвечать на сообщения
Вы не можете редактировать свои сообщения
Вы не можете удалять свои сообщения
Вы не можете голосовать в опросах
Вы не можете прикреплять файлы к сообщениям
Вы можете скачивать файлы