Loading...
Error

Скачать Меня зовут Никто / My Name Is Nobody / Il mio nome è Nessuno (Тонио Валери / Tonino Valerii) [1973 г., вестерн, BDRip-AVC] [MVO] + [Original (eng)] торрент без регистрации

 
Статистика раздачи
Размер:  1,46 GB   |    Скачан:  105 раз
Сидов:  1  [  0 KB/s  ]  
 
Автор Сообщение

leon030982

[] 

Меня зовут Никто / My Name Is Nobody / Il mio nome è Nessuno


Год выпуска: 1973
Страна: Италия
Жанр
: вестерн
Продолжительность: 01:55:36
Перевод: Профессиональный (многоголосый закадровый)
Оригинальная аудиодорожка: английский

Режиссер: Тонио Валери / Tonino Valerii

В ролях: Теренс Хилл, Генри Фонда, Жан Мартен, Р.Г. Армстронг, Карл Браун, Лео Гордон, Стив Кэнэли, Джеффри Льюис, Нил Саммерс, Пьеро Лулли

Описание: Джек Борегар, старый и опытный стрелок с большой славой, хочет уехать в Европу и найти там покой. В это же время молодой стрелок, зовущий себя Никто и практически боготворящий Борегара, выступает против его поездки. Желая обеспечить своему кумиру вечную славу бойца и стрелка, он подстраивает выход на Борегара Дикой банды, состоящей из 150 человек.

Сэмпл: http://multi-up.com/797678
Качество видео: BDRip-AVC
Формат видео: MKV
Видео: 976х416 (2,35:1), 23,976 fps, AVC (H.264) ~1420 kbps avg, 0.146 bit/pixel
Аудио 1: Russian (48 KHz, AC3, 2 ch, ~192 Kbps) (многоголосый)
Аудио 2: English (48 KHz, AC3, 2 ch, ~192 Kbps) (оригинал)
Общее
Уникальный идентификатор : 230021243528090135281074679842507155764 (0xAD0C7AE63BEEC0329D943E2CC9A96934)
Полное имя : D:\KINO\Меня зовут Никто.mkv
Формат : Matroska
Версия формата : Version 2
Размер файла : 1,46 Гбайт
Продолжительность : 1 ч. 55 м.
Общий поток : 1806 Кбит/сек
Дата кодирования : UTC 2012-12-01 18:45:33
Программа кодирования : mkvmerge v4.0.0 ('The Stars were mine') сборка от Jun 6 2010 16:18:42
Библиотека кодирования : libebml v1.0.0 + libmatroska v1.0.0
Видео
Идентификатор : 1
Формат : AVC
Формат/Информация : Advanced Video Codec
Профиль формата : High@L4.1
Параметр CABAC формата : Да
Параметр ReFrames формата : 16 кадров
Идентификатор кодека : V_MPEG4/ISO/AVC
Продолжительность : 1 ч. 55 м.
Битрейт : 1420 Кбит/сек
Ширина : 976 пикселей
Высота : 416 пикселей
Соотношение сторон : 2,35:1
Частота кадров : 23,976 кадра/сек
Цветовое пространство : YUV
Субдискретизация насыщенности : 4:2:0
Битовая глубина : 8 бит
Тип развёртки : Прогрессивная
Бит/(Пиксели*Кадры) : 0.146
Размер потока : 1,12 Гбайт (77%)
Библиотека кодирования : x264 core 125 r2200 999b753
Настройки программы : cabac=1 / ref=16 / deblock=1:-2:-1 / analyse=0x3:0x133 / me=umh / subme=10 / psy=1 / psy_rd=1.00:0.00 / mixed_ref=1 / me_range=24 / chroma_me=1 / trellis=2 / 8x8dct=1 / cqm=0 / deadzone=21,11 / fast_pskip=1 / chroma_qp_offset=-2 / threads=3 / lookahead_threads=1 / sliced_threads=0 / nr=0 / decimate=1 / interlaced=0 / bluray_compat=0 / constrained_intra=0 / bframes=8 / b_pyramid=2 / b_adapt=2 / b_bias=0 / direct=3 / weightb=1 / open_gop=0 / weightp=2 / keyint=240 / keyint_min=23 / scenecut=40 / intra_refresh=0 / rc_lookahead=60 / rc=2pass / mbtree=1 / bitrate=1420 / ratetol=1.0 / qcomp=0.60 / qpmin=10 / qpmax=51 / qpstep=4 / cplxblur=20.0 / qblur=0.5 / vbv_maxrate=50000 / vbv_bufsize=50000 / nal_hrd=none / ip_ratio=1.40 / aq=1:1.00
Default : Нет
Forced : Нет
Аудио #1
Идентификатор : 2
Формат : AC-3
Формат/Информация : Audio Coding 3
Расширение режима : CM (complete main)
Идентификатор кодека : A_AC3
Продолжительность : 1 ч. 55 м.
Вид битрейта : Постоянный
Битрейт : 192 Кбит/сек
Каналы : 2 канала
Расположение каналов : Front: L R
Частота : 48,0 КГц
Битовая глубина : 16 бит
Метод сжатия : С потерями
Размер потока : 159 Мбайт (11%)
Язык : Russian
Default : Да
Forced : Нет
Аудио #2
Идентификатор : 3
Формат : AC-3
Формат/Информация : Audio Coding 3
Расширение режима : CM (complete main)
Идентификатор кодека : A_AC3
Продолжительность : 1 ч. 55 м.
Вид битрейта : Постоянный
Битрейт : 192 Кбит/сек
Каналы : 2 канала
Расположение каналов : Front: L R
Частота : 48,0 КГц
Битовая глубина : 16 бит
Метод сжатия : С потерями
Размер потока : 159 Мбайт (11%)
Язык : English
Default : Нет
Forced : Нет



Скачать Меня.зовут.Никто.My.Name.Is.Nobody.Il.mio.nome.è.Nessuno.(Тонио.Валери.Tonino.Valerii).[1973.г.вестерн.BDRip-AVC].[MVO].+.[Original.(eng)].torrent без регистрации
Золото ЗОЛОТАЯ РАЗДАЧА! СКАЧАННОЕ НЕ ЗАСЧИТЫВАЕТСЯ! Золото
Дата: Зарегистрирован   [ Тип: внутренний ] Как тут cкачать?
MAGNET ссылка
MAGNET ссылка


Скачать .torrent

15 KB

Статус: проверено DHT
Скачан: торрент - 105 раз, раздача полностью - 2 раз
Размер: 1,46 GB
Оценка:  5 (Голосов: 1)
Поблагодарили: 1
Поделиться ссылкой на эту раздачу с друзьями:
В контактеFacebookОдноклассникиTwitterLivejournalМой МирLiveinternet
 

 
Показать сообщения:    


Вы не можете начинать темы
Вы не можете отвечать на сообщения
Вы не можете редактировать свои сообщения
Вы не можете удалять свои сообщения
Вы не можете голосовать в опросах
Вы не можете прикреплять файлы к сообщениям
Вы можете скачивать файлы