Loading...
Error

Скачать Масло Лоренцо / Lorenzo's Oil (Джордж Миллер) [1992, драма, DVDRip] [MVO] торрент без регистрации

 
Статистика раздачи
Размер:  815 MB   |    Скачан:  5365 раз
Сидов:  1  [  0 KB/s  ]  
 
Автор Сообщение

Marsianka

[] 

Информация о фильме
Название: Масло Лоренцо
Оригинальное название: Lorenzo's Oil
Год выхода: 1992
Жанр: драма
Режиссер: Джордж Миллер / George Miller
В ролях: Ник Нолти /Nick Nolte/, Сьюзэн Сэрэндон /Susan Sarandon/, Питер Устинов /Peter Ustinov/, Кэтлин Уилхойте /Kathleen Wilhoite/, Зэк О'Мэлли Гринберг /Zack O'Malley Greenburg/

О фильме:
Маленький Лоренцо Одоне поражен редкой, неизлечимой болезнью мозга. Впав на долгие годы в состояние, близкое к коматозному, Лоренцо не знает, какую долгую, изнуряющую борьбу с недугом ведут его родители Аугусто и Михаэла Одоне. Преодолевая трудности, медицинские заключения с их смертельными приговорами, предубеждение окружающих, они изобретают уникальное лекарство, позволяющее справиться с болезнью. Лекарство, получившее название «масло Лоренцо»



Страна: США
Продолжительность: 02:15:17
Перевод: Профессиональный (многоголосый, закадровый)

Файл
Кодек: XviD / MP3
Качество: DVDRip
Видео: XviD, 592x320 (1.850), 23.976 fps, 705 Kbps (0.155 bit/pixel)
Звук: MP3, 48.0 KHz, 2 ch, 128 Kbps, CBR
General
Complete name : E:Lorenzo's.Oil_[Rutor.org].avi
Format : AVI
Format/Info : Audio Video Interleave
File size : 815 MiB
Duration : 2h 15mn
Overall bit rate : 842 Kbps
Writing application : VirtualDubMod 1.5.10.2 (build 2540/release)
Writing library : VirtualDubMod build 2540/release

Video
ID : 0
Format : MPEG-4 Visual
Format profile : Advanced Simple@L5
Format settings, BVOP : 1
Format settings, QPel : No
Format settings, GMC : No warppoints
Format settings, Matrix : Custom
Codec ID : XVID
Codec ID/Hint : XviD
Duration : 2h 15mn
Bit rate : 705 Kbps
Width : 592 pixels
Height : 320 pixels
Display aspect ratio : 1.850
Frame rate : 23.976 fps
Color space : YUV
Chroma subsampling : 4:2:0
Bit depth : 8 bits
Scan type : Progressive
Compression mode : Lossy
Bits/(Pixel*Frame) : 0.155
Stream size : 682 MiB (84%)
Writing library : XviD 1.2.1 (UTC 2008-12-04)

Audio
ID : 1
Format : MPEG Audio
Format version : Version 1
Format profile : Layer 3
Codec ID : 55
Codec ID/Hint : MP3
Duration : 2h 15mn
Bit rate mode : Constant
Bit rate : 128 Kbps
Channel(s) : 2 channels
Sampling rate : 48.0 KHz
Compression mode : Lossy
Stream size : 124 MiB (15%)
Alignment : Aligned on interleaves
Interleave, duration : 42 ms (1.00 video frame)
Interleave, preload duration : 504 ms
Writing library : LAME3.97
Encoding settings : -m s -V 4 -q 2 -lowpass 17 -b 128



Скачать Масло.Лоренцо.Lorenzo's.Oil.(Джордж.Миллер).[1992.драма.DVDRip].[MVO].torrent без регистрации
Золото ЗОЛОТАЯ РАЗДАЧА! СКАЧАННОЕ НЕ ЗАСЧИТЫВАЕТСЯ! Золото
Дата: Зарегистрирован   [ Тип: внутренний ] Как тут cкачать?
MAGNET ссылка
MAGNET ссылка


Скачать .torrent

16 KB

Статус: проверено DHT
Скачан: торрент - 5365 раз, раздача полностью - 8 раз
Размер: 815 MB
Оценка:  - (Голосов: 0)
Поблагодарили: 1
Поделиться ссылкой на эту раздачу с друзьями:
В контактеFacebookОдноклассникиTwitterLivejournalМой МирLiveinternet
 

 
Показать сообщения:    


Вы не можете начинать темы
Вы не можете отвечать на сообщения
Вы не можете редактировать свои сообщения
Вы не можете удалять свои сообщения
Вы не можете голосовать в опросах
Вы не можете прикреплять файлы к сообщениям
Вы можете скачивать файлы