Loading...
Error

Скачать Кинг Конг / King Kong (Питер Джексон) [2005 г., мелодрама, приключения, BDRip - AVC] [DUB] торрент без регистрации

 
Статистика раздачи
Размер:  4,04 GB   |    Скачан:  149 раз

Полного источника не было: 23 минуты

 
Автор Сообщение

and77200

[] 


Кинг Конг

«Восьмое чудо света»

Год выпуска: 2005
Страна: Новая Зеландия, США, Германия
Жанр: боевик, драма, мелодрама, приключения
Продолжительность: 03:20:07
Перевод: Профессиональный (полное дублирование)
Режиссер: Питер Джексон / Peter Jackson

В ролях: Наоми Уоттс (Ann Darrow), Эдриан Броуди (Jack Driscoll), Джек Блэк (Carl Denham), Томас Кречманн (Captain Englehorn), Энди Серкис (Kong / Lumpy), Колин Хэнкс (Preston), Джейми Белл (Jimmy), Кайл Чандлер (Bruce Baxter), Эван Парк (Hayes), Лобо Чан (Choy), Джон Самнер (Herb), Крэйг Холл (Mike)
Описание: В 1930-м году съемочная группа под предводительством режиссера-неудачника Карла Дэнхэма отправляется на загадочный Остров Черепа неподалеку от Суматры, чтобы изучать легенды о гигантской горилле по кличке Конг. По прибытии на место они обнаруживают, что Кинг Конг и правда существует.
Горилла живет в самой чаще непроходимых джунглей, где помимо него, спрятанные от всего мира, обитают многие создания из доисторических времен. Исследователи оказываются между двух огней - с одной стороны Кинг Конг, а с другой - его враги динозавры...


Качество: BDRip - AVC
Контейнер: MKV
Видео кодек: AVC
Аудио кодек: AC3

Видео: AVC, 1024x432 (2.35:1), 2550 kbps, 23,976 fps, 0,240 bpp
Аудио: русский / AC3 / 5.1 / 48 kHz / 384 kbps / 16 bit
Рип: and77200



General
Complete name : E:\торрент\Кинг Конг (2005) BDRip -AVC.mkv
Format : Matroska
File size : 4.04 GiB
Duration : 3h 20mn
Overall bit rate : 2 889 Kbps
Encoded date : UTC 2013-03-02 07:10:24
Writing application : mkvmerge v5.7.0 ('The Whirlwind') built on Jul 8 2012 20:08:51
Writing library : libebml v1.2.3 + libmatroska v1.3.0

Video
ID : 1
Format : AVC
Format/Info : Advanced Video Codec
Format profile : High@L4.1
Format settings, CABAC : Yes
Format settings, ReFrames : 5 frames
Muxing mode : Container profile=Unknown@4.1
Codec ID : V_MPEG4/ISO/AVC
Duration : 3h 19mn
Bit rate : 2 447 Kbps
Nominal bit rate : 2 550 Kbps
Width : 1 024 pixels
Height : 432 pixels
Display aspect ratio : 2.35:1
Original display aspect ratio : 2.35:1
Frame rate mode : Variable
Frame rate : 23.976 fps
Resolution : 24 bits
Colorimetry : 4:2:0
Scan type : Progressive
Bits/(Pixel*Frame) : 0.231
Stream size : 3.42 GiB (85%)
Writing library : x264 core 124 r2197M 69a0443
Encoding settings : cabac=1 / ref=6 / deblock=1:0:0 / analyse=0x3:0x133 / me=umh / subme=9 / psy=1 / psy_rd=1.00:0.20 / mixed_ref=1 / me_range=16 / chroma_me=1 / trellis=0 / 8x8dct=1 / cqm=0 / deadzone=21,11 / fast_pskip=1 / chroma_qp_offset=-2 / threads=2 / sliced_threads=0 / nr=0 / decimate=1 / interlaced=0 / bluray_compat=0 / constrained_intra=0 / bframes=6 / b_pyramid=1 / b_adapt=0 / b_bias=0 / direct=3 / weightb=1 / open_gop=0 / weightp=0 / keyint=230 / keyint_min=23 / scenecut=40 / intra_refresh=0 / rc_lookahead=40 / rc=abr / mbtree=1 / bitrate=2550 / ratetol=1.0 / qcomp=0.60 / qpmin=10 / qpmax=51 / qpstep=5 / ip_ratio=1.40 / aq=1:1.00

Audio
ID : 2
Format : AC-3
Format/Info : Audio Coding 3
Codec ID : A_AC3
Duration : 3h 20mn
Bit rate mode : Constant
Bit rate : 384 Kbps
Channel(s) : 6 channels
Channel positions : Front: L C R, Surround: L R, LFE
Sampling rate : 48.0 KHz
Stream size : 550 MiB (13%)
Language : Russian

Menu
00:00:00.000 : en:00:00:00.000
00:05:00.000 : en:00:05:00.000
00:10:00.000 : en:00:10:00.000
00:15:00.000 : en:00:15:00.000
00:20:00.000 : en:00:20:00.000
00:25:00.000 : en:00:25:00.000
00:30:00.000 : en:00:30:00.000
00:35:00.000 : en:00:35:00.000
00:40:00.000 : en:00:40:00.000
00:45:00.000 : en:00:45:00.000
00:50:00.000 : en:00:50:00.000
00:55:00.000 : en:00:55:00.000
01:00:00.000 : en:01:00:00.000
01:05:00.000 : en:01:05:00.000
01:10:00.000 : en:01:10:00.000
01:15:00.000 : en:01:15:00.000
01:20:00.000 : en:01:20:00.000
01:25:00.000 : en:01:25:00.000
01:30:00.000 : en:01:30:00.000
01:35:00.000 : en:01:35:00.000
01:40:00.000 : en:01:40:00.000
01:45:00.000 : en:01:45:00.000
01:50:00.000 : en:01:50:00.000
01:55:00.000 : en:01:55:00.000
02:00:00.000 : en:02:00:00.000
02:05:00.000 : en:02:05:00.000
02:10:00.000 : en:02:10:00.000
02:15:00.000 : en:02:15:00.000
02:20:00.000 : en:02:20:00.000
02:25:00.000 : en:02:25:00.000
02:30:00.000 : en:02:30:00.000
02:35:00.000 : en:02:35:00.000
02:40:00.000 : en:02:40:00.000
02:45:00.000 : en:02:45:00.000
02:50:00.000 : en:02:50:00.000
02:55:00.000 : en:02:55:00.000
03:00:00.000 : en:03:00:00.000
03:05:00.000 : en:03:05:00.000
03:10:00.000 : en:03:10:00.000
03:15:00.000 : en:03:15:00.000
Оформление by and77200



Скачать Кинг.Конг.King.Kong.(Питер.Джексон).[2005.г.мелодрама.приключения.BDRip.-.AVC].[DUB].torrent без регистрации
Золото ЗОЛОТАЯ РАЗДАЧА! СКАЧАННОЕ НЕ ЗАСЧИТЫВАЕТСЯ! Золото
Дата: Зарегистрирован   [ Тип: внутренний ] Как тут cкачать?
MAGNET ссылка
MAGNET ссылка


Скачать .torrent

82 KB

Статус: проверено DHT
Скачан: торрент - 149 раз, раздача полностью - 15 раз
Размер: 4,04 GB
Оценка:  - (Голосов: 0)
Поблагодарили: 4
Поделиться ссылкой на эту раздачу с друзьями:
В контактеFacebookОдноклассникиTwitterLivejournalМой МирLiveinternet
 

 
Показать сообщения:    


Вы не можете начинать темы
Вы не можете отвечать на сообщения
Вы не можете редактировать свои сообщения
Вы не можете удалять свои сообщения
Вы не можете голосовать в опросах
Вы не можете прикреплять файлы к сообщениям
Вы можете скачивать файлы