Loading...
Error

/ 2 Days in the Valley ( / John Herzfeld) [1996, , , DVDRip] [MVO] + [AVO] () + [Original] (eng) + sub (eng)

 
1,77 GB   |    :  107
1  [  0 KB/s  ]  
 

leon030982

[] 

/ 2 Days in the Valley


,


: 1996
:
: ,
: 01:40:33
1: ( )
2: ( )
: ()

C: (.SRT)

: / John Herzfeld

: , , , , , , , , , , .

: : , . , .

, , , , , .



: DVDRip []
: AVI
: 720x304 (2.37:1), 25 fps, XviD build 64 ~1676 kbps avg, 0.31 bit/pixel
#1: 48 kHz, AC3 Dolby Digital, 2/0 (L,R) ch, ~192.00 kbps avg | ( )
#2: 48 kHz, AC3 Dolby Digital, 2/0 (L,R) ch, ~192.00 kbps avg | ( )
#3: 48 kHz, AC3 Dolby Digital, 3/2 (L,C,R,l,r) LFE ch, ~448.00 kbps avg |

:

General
Complete name : Dva.dnya.v.doline.1996.DVDRip.rus.MVO.AVO.Gavrilov.avi
Format : AVI
Format/Info : Audio Video Interleave
File size : 1.46 GiB
Duration : 1h 40mn
Overall bit rate : 2 076 Kbps
Movie name : 2 Days in the Valley
Director : John Herzfeld
Genre : Thriller
Writing application : VirtualDubMod 1.5.10.2 (build 2540/release)
Original source form/Name : Movie
Video
ID : 0
Format : MPEG-4 Visual
Format profile : Advanced Simple@L5
Format settings, BVOP : 1
Format settings, QPel : No
Format settings, GMC : No warppoints
Format settings, Matrix : Custom
Codec ID : XVID
Codec ID/Hint : XviD
Duration : 1h 40mn
Bit rate : 1 677 Kbps
Width : 720 pixels
Height : 304 pixels
Display aspect ratio : 2.35:1
Frame rate : 25.000 fps
Color space : YUV
Chroma subsampling : 4:2:0
Bit depth : 8 bits
Scan type : Progressive
Compression mode : Lossy
Bits/(Pixel*Frame) : 0.307
Stream size : 1.18 GiB (81%)
Writing library : XviD 64
Audio #1
ID : 1
Format : AC-3
Format/Info : Audio Coding 3
Mode extension : CM (complete main)
Codec ID : 2000
Duration : 1h 40mn
Bit rate mode : Constant
Bit rate : 192 Kbps
Channel(s) : 2 channels
Channel positions : Front: L R
Sampling rate : 48.0 KHz
Bit depth : 16 bits
Compression mode : Lossy
Stream size : 138 MiB (9%)
Alignment : Split accross interleaves
Interleave, duration : 40 ms (1.00 video frame)
Interleave, preload duration : 500 ms
Audio #2
ID : 2
Format : AC-3
Format/Info : Audio Coding 3
Mode extension : CM (complete main)
Codec ID : 2000
Duration : 1h 40mn
Bit rate mode : Constant
Bit rate : 192 Kbps
Channel(s) : 2 channels
Channel positions : Front: L R
Sampling rate : 48.0 KHz
Bit depth : 16 bits
Compression mode : Lossy
Stream size : 138 MiB (9%)
Alignment : Split accross interleaves
Interleave, duration : 40 ms (1.00 video frame)
Interleave, preload duration : 500 ms




....2.Days.in.the.Valley.(..John.Herzfeld).[1996...DVDRip].[MVO].+.[AVO].().+.[Original].(eng).+.sub.(eng).torrent
  ! ! 
:   [ : ] c?
MAGNET
MAGNET


.torrent

19 KB

: DHT
: - 107 , - 6
: 1,77 GB
5 (: 1)
: 1
:
 FacebookTwitterLivejournal Liveinternet
 

 
: