Loading...
Error

Скачать Каффс / Kuffs (Брюс А. Эванс / Bruce A. Evans) [1992 г., боевик, комедия, криминал, HDTVRip] [AVO] (Гаврилов) + [VO] (Жучков) торрент без регистрации

 
Статистика раздачи
Размер:  836 MB   |    Скачан:  99 раз
Сидов:  1  [  0 KB/s  ]  
 
Автор Сообщение

leon030982

[] 


Каффс / Kuffs
«Кому нужен опыт, когда у вас есть харизма?»


Год выпуска: 1992

Страна: США
Жанр: боевик, комедия, криминал
Продолжительность: 01:41:33
Перевод № 1: Авторский (одноголосый закадровый) Андрей Гаврилов
Перевод № 2: Одноголосый (закадровый) Жучков - отдельным файлом
Субтитры: нет

Режиссер: Брюс А. Эванс / Bruce A. Evans

В ролях:
Кристиан Слейтер / Christian Slater, Тони Голдуин / Tony Goldwyn, Милла Йовович / Milla Jovovich, Брюс Бокслайтнер / Bruce Boxleitner, Трой Эванс / Troy Evans, Джордж Де Ла Пенья / George De La Pena, Леон Риппи / Leon Rippy, Джошуа Кэдмэн / Joshua Cadman, Мэри Эллен Трэйнор / Mary Ellen Trainor, Ким Робиллард / Kim Robillard, Скотт Уильямсон / Scott Williamson, Аки Алеонг / Aki Aleong

Описание:

У Джорджа Каффса, молодого парня из Сан-Франциско, куча проблем: безработица, безденежье, неожиданная беременность возлюбленной... Вся надежда на старшего брата - владельца охранного агентства, защищающего мелких предпринимателей от вымогателей и грабителей.
Но брат погибает от руки гангстера, и Джордж, унаследовав семейную «вотчину», сам становится патрульным. И начинает активную борьбу с бандитами и продажными полицейскими.

Джордж Каффс (Слэйтер) - молодой парень, думающий только о развлечениях и дармовых деньгах. Он во всем полагается на своего старшего брата, который владеет частным сыскным агенством "Специальный патруль", передаваемым по наследству аж с прошлого века. Когда брата убивают, Джорджу приходится забыть о сладкой жизни. Он берет на себя бизнес брата, чтобы отомстить бандитам. Сделана картина в комедийном ключе, увлекательно и динамично. Тони Голдуин в роли напарника Джорджа. (c) Иванов М.




Сэмпл Рип совместим с бытовыми DVD-проигрывателями.
Размер основного файла (без дополнительной звуковой дорожки) - 743 Mb

Качество видео: DVDRip
Формат видео: AVI
Видео кодек: XviD
Аудио кодек: MP3
Видео: XviD 73, 624x336 (1.85:1), 886 kbps, 25 fps, 0.176 bpp
Аудио № 1: MPEG-1 Audio Layer 3; 48.0 KHz; 128 Kbps; CBR; 2 ch (Гаврилов)
Аудио № 2: MPEG-1 Audio Layer 3; 48.0 KHz; 128 Kbps; CBR; 2 ch (Жучков) - отдельно
General
Complete name : \Kaffs_(1992).DVDRip.XviD.mp3-All.Films-RG.avi
Format : AVI
Format/Info : Audio Video Interleave
File size : 743 MiB
Duration : 1h 41mn
Overall bit rate : 1 023 Kbps
Movie name : Каффс / Kuffs (1992) DVDRip [All.Films][RG]
Director : <VIRUS> / [rutracker.org]
Writing application : VirtualDubMod 1.5.10.3 | www.virtualdub-fr.org || (build 2550/release)
Video
ID : 0
Format : MPEG-4 Visual
Format profile : Advanced Simple@L5
Format settings, BVOP : 2
Format settings, QPel : No
Format settings, GMC : No warppoints
Format settings, Matrix : Custom
Codec ID : XVID
Codec ID/Hint : XviD
Duration : 1h 41mn
Bit rate : 886 Kbps
Width : 624 pixels
Height : 336 pixels
Display aspect ratio : 1.85:1
Frame rate : 23.976 fps
Color space : YUV
Chroma subsampling : 4:2:0
Bit depth : 8 bits
Scan type : Progressive
Compression mode : Lossy
Bits/(Pixel*Frame) : 0.176
Stream size : 643 MiB (87%)
Writing library : XviD 73
Audio
ID : 1
Format : MPEG Audio
Format version : Version 1
Format profile : Layer 3
Codec ID : 55
Codec ID/Hint : MP3
Duration : 1h 41mn
Bit rate mode : Constant
Bit rate : 128 Kbps
Channel(s) : 2 channels
Sampling rate : 48.0 KHz
Compression mode : Lossy
Stream size : 93.0 MiB (13%)
Alignment : Aligned on interleaves
Interleave, duration : 42 ms (1.00 video frame)
Interleave, preload duration : 504 ms
Writing library : LAME3.99r
Encoding settings : -m s -V 4 -q 0 -lowpass 17 -b 128



Скачать Каффс.Kuffs.(Брюс.А.Эванс.Bruce.A.Evans).[1992.г.боевик.комедия.криминал.HDTVRip].[AVO].(Гаврилов).+.[VO].(Жучков).torrent без регистрации
Золото ЗОЛОТАЯ РАЗДАЧА! СКАЧАННОЕ НЕ ЗАСЧИТЫВАЕТСЯ! Золото
Дата: Зарегистрирован   [ Тип: внутренний ] Как тут cкачать?
MAGNET ссылка
MAGNET ссылка


Скачать .torrent

17 KB

Статус: проверено DHT
Скачан: торрент - 99 раз, раздача полностью - 4 раз
Размер: 836 MB
Оценка:  - (Голосов: 0)
Поблагодарили: 0
Поделиться ссылкой на эту раздачу с друзьями:
В контактеFacebookОдноклассникиTwitterLivejournalМой МирLiveinternet
 

 
Показать сообщения:    


Вы не можете начинать темы
Вы не можете отвечать на сообщения
Вы не можете редактировать свои сообщения
Вы не можете удалять свои сообщения
Вы не можете голосовать в опросах
Вы не можете прикреплять файлы к сообщениям
Вы можете скачивать файлы