Loading...
Error

Скачать Кто подставил кролика Роджера / Who Framed Roger Rabbit (Роберт Земекис) [1988, мультфильм, комедия, криминал, семейный, фэнтези, детектив, BDRip] [Dub]+[MVO]+[AVO]+[Sub] торрент без регистрации

 
Статистика раздачи
Размер:  2,92 GB   |    Скачан:  109 раз
Сидов:  1  [  0 KB/s  ]  
 
Автор Сообщение

Marsianka

[] 

Информация о фильме
Название: Кто подставил кролика Роджера
Оригинальное название: Who Framed Roger Rabbit
Год выхода: 1988
Жанр: мультфильм, комедия, криминал, семейный, фэнтези, детектив
Режиссер: Роберт Земекис
В ролях: Боб Хоскинс, Кристофер Ллойд, Джоанна Кэссиди, Чарльз Флейшер, Стабби Кэй, Элан Тилверн, Ричард ЛеПарментье, Лу Хирш, Бетси Брантли, Джоэль Сильвер

О фильме:
Частный детектив расследует загадочное преступление, в котором подозревается мультипликационный персонаж кролик Роджер! Сыщик попадает в непредсказуемый мир, где его ожидают нарисованные злодеи с настоящими револьверами, говорящий автомобиль и соблазнительная мультяшная красотка. Наконец, на горизонте появляется мрачная фигура того, кто подставил кролика Роджера Стивен Спилберг и Роберт Земекис создали уникальный фильм, где впервые в истории мирового кино была соединена анимация и художественная съёмка. Наряду с настоящими актёрами в картине играют мультипликационные герои, которые вмешиваются в сложный ход реальных событий, устанавливая свои правила и законы.



Страна: США
Студия: Amblin Entertainment, Silver Screen Partners III, Touchstone Pictures, Walt Disney Feature Animation
Продолжительность: 01:43:45
Перевод: Дублированный, профессиональный (многоголосый закадровый), авторский (одноголосый закадровый)

Файл
Кодек: XviD
Качество: BDRip
Видео: 1617 Кбит/с, 704х384, 23.976 кадр/с
1: Русский (AC3, 6 ch, 384 Кбит/с) Дублированный
Отдельно:
2: Русский (AC3, 6 ch, 384 Кбит/с) Профессиональный многоголосый 1
3: Русский (AC3, 6 ch, 384 Кбит/с) Профессиональный многоголосый 2
4: Русский (AC3, 6 ch, 384 Кбит/с) Авторский одноголосый [Андрей Гаврилов]
5: Русский (МР3, 2 ch, 96 Кбит/с) Авторский одноголосый [Юрий Живов]
6: Русский (AC3, 6 ch, 384 Кбит/с) Авторский одноголосый [Алексей Михалев]
7: Английский (AC3, 6 ch, 384 Кбит/с)

Субтитры: Русские, английские

Полное имя : Krolik.Rodjer.1988.XviD.BDRip.0ptimus.avi
Формат : AVI
Формат/Информация : Audio Video Interleave
Размер файла : 1,46 Гбайт
Продолжительность : 1 ч. 43 м.
Общий поток : 2010 Кбит/сек
Программа кодирования : VirtualDubMod 1.5.10.3 | www.virtualdub-fr.org || (build 2550/release)
Библиотека кодирования : VirtualDubMod build 2550/release

Видео
Идентификатор : 0
Формат : MPEG-4 Visual
Профиль формата : Advanced Simple@L5
Параметр BVOP формата : 1
Параметр QPel формата : Нет
Параметр GMC формата : Без точки перехода
Параметр матрицы формата : Выборочная
Идентификатор кодека : XVID
Идентификатор кодека/Подсказка : XviD
Продолжительность : 1 ч. 43 м.
Битрейт : 1617 Кбит/сек
Ширина : 704 пикселя
Высота : 384 пикселя
Соотношение сторон : 1,85:1
Частота кадров : 23,976 кадра/сек
Цветовое пространство : YUV
Субдискретизация насыщенности : 4:2:0
Битовая глубина : 8 бит
Тип развёртки : Прогрессивная
Метод сжатия : С потерями
Бит/(Пиксели*Кадры) : 0.249
Размер потока : 1,17 Гбайт (80%)
Библиотека кодирования : XviD 64

Аудио
Идентификатор : 1
Формат : AC-3
Формат/Информация : Audio Coding 3
Расширение режима : CM (complete main)
Параметр Endianness формата : Big
Идентификатор кодека : 2000
Продолжительность : 1 ч. 43 м.
Вид битрейта : Постоянный
Битрейт : 384 Кбит/сек
Каналы : 6 каналов
Расположение каналов : Front: L C R, Side: L R, LFE
Частота : 48,0 КГц
Битовая глубина : 16 бит
Метод сжатия : С потерями
Размер потока : 285 Мбайт (19%)
Выравнивание : Разделение по промежуткам
Продолжительность промежутка : 42 мс. (1,00 видеокадр)
Время предзагрузки промежутка : 500 мс.
Релиз от: 0ptimus



Скачать Кто.подставил.кролика.Роджера.Who.Framed.Roger.Rabbit.(Роберт.Земекис).[1988.мультфильм.комедия.криминал.семейный.фэнтези.детектив.BDRip].[Dub]+[MVO]+[AVO]+[Sub].torrent без регистрации
Золото ЗОЛОТАЯ РАЗДАЧА! СКАЧАННОЕ НЕ ЗАСЧИТЫВАЕТСЯ! Золото
Дата: Зарегистрирован   [ Тип: внутренний ] Как тут cкачать?
MAGNET ссылка
MAGNET ссылка


Скачать .torrent

16 KB

Статус: проверено DHT
Скачан: торрент - 109 раз, раздача полностью - 12 раз
Размер: 2,92 GB
Оценка:  - (Голосов: 0)
Поблагодарили: 1
Поделиться ссылкой на эту раздачу с друзьями:
В контактеFacebookОдноклассникиTwitterLivejournalМой МирLiveinternet
 

 
Показать сообщения:    


Вы не можете начинать темы
Вы не можете отвечать на сообщения
Вы не можете редактировать свои сообщения
Вы не можете удалять свои сообщения
Вы не можете голосовать в опросах
Вы не можете прикреплять файлы к сообщениям
Вы можете скачивать файлы