Loading...
Error

Скачать Женатый холостяк / Lan meg din kone (Эдит Калмар) [1958, комедия, VHSRip] [Dub](Киностудия им. М. Горького) торрент без регистрации

 
Статистика раздачи
Размер:  744 MB   |    Скачан:  113 раз
Сидов:  1  [  0 KB/s  ]  
 
Автор Сообщение

Marsianka

[] 

Страна: Норвегия
Жанр: комедия
Год выпуска: 1958
Продолжительность: 01:13:31
Перевод: Дублированный (Киностудия им. М. Горького)
Cубтитры: нет
Режиссер: Эдит Калмар / Edith Carlmar
В ролях: Тор Фосс (Carl W. Rustad, direktЁr), Соня Уигерт (Vernonica Flint), Вигдис Рёйсинг (Wenche Rustad), Атле Мертон (BjЁrn Lund, avdelingssjef), Эрик Лассен (Holmsen), Рэнди Кольстад (Anita), Эгиль Хьорт-Йенссен, Рольф Жюст Нильсен, Турид Бальке (Fru Holmsen), Ауд Шёнеманн, Эльза Листад (Selskapsgjest)
Описание:
Смешная и веселая история о том, как один молодой человек ради получения выгодной должности, которая могла быть предоставлена только женатому человеку, взял «взаймы» у своего друга жену, и что из этого получилось.


Рейтинг
imdb.com: 6.30 (70)
Сэмпл
Качество видео: VHSRip
Формат видео: AVI
Видео: XviD; 688x512 (4:3); 1212 Kbps; 25 fps; 0,138 bpp
Аудио: AC3; 192 Kbps; CBR; 2 ch; 16 bit ,48 kHz

General
Complete name : C:UsersSe7enDesktopLan meg din kone_1958_VHSRip_[youtracker.net].avi
Format : AVI
Format/Info : Audio Video Interleave
File size : 744 MiB
Duration : 1h 13mn
Overall bit rate : 1 414 Kbps
Writing application : VirtualDubMod 1.5.10.3 | www.virtualdub-fr.org || (build 2550/release)
Writing library : VirtualDubMod build 2550/release

Video
ID : 0
Format : MPEG-4 Visual
Format profile : Advanced Simple@L5
Format settings, BVOP : 2
Format settings, QPel : No
Format settings, GMC : No warppoints
Format settings, Matrix : Custom
Codec ID : XVID
Codec ID/Hint : XviD
Duration : 1h 13mn
Bit rate : 1 212 Kbps
Width : 688 pixels
Height : 512 pixels
Display aspect ratio : 4:3
Frame rate : 25.000 fps
Color space : YUV
Chroma subsampling : 4:2:0
Bit depth : 8 bits
Scan type : Progressive
Compression mode : Lossy
Bits/(Pixel*Frame) : 0.138
Stream size : 638 MiB (86%)
Writing library : XviD 65

Audio
ID : 1
Format : AC-3
Format/Info : Audio Coding 3
Mode extension : CM (complete main)
Codec ID : 2000
Duration : 1h 13mn
Bit rate mode : Constant
Bit rate : 192 Kbps
Channel(s) : 2 channels
Channel positions : Front: L R
Sampling rate : 48.0 KHz
Bit depth : 16 bits
Compression mode : Lossy
Stream size : 101 MiB (14%)
Alignment : Split accross interleaves
Interleave, duration : 40 ms (1.00 video frame)
Interleave, preload duration : 500 ms




Скачать Женатый.холостяк.Lan.meg.din.kone.(Эдит.Калмар).[1958.комедия.VHSRip].[Dub](Киностудия.им.М.Горького).torrent без регистрации
Золото ЗОЛОТАЯ РАЗДАЧА! СКАЧАННОЕ НЕ ЗАСЧИТЫВАЕТСЯ! Золото
Дата: Зарегистрирован   [ Тип: внутренний ] Как тут cкачать?
MAGNET ссылка
MAGNET ссылка


Скачать .torrent

15 KB

Статус: проверено DHT
Скачан: торрент - 113 раз, раздача полностью - 99 раз
Размер: 744 MB
Оценка:  - (Голосов: 0)
Поблагодарили: 2
Поделиться ссылкой на эту раздачу с друзьями:
В контактеFacebookОдноклассникиTwitterLivejournalМой МирLiveinternet
 

 
Показать сообщения:    


Вы не можете начинать темы
Вы не можете отвечать на сообщения
Вы не можете редактировать свои сообщения
Вы не можете удалять свои сообщения
Вы не можете голосовать в опросах
Вы не можете прикреплять файлы к сообщениям
Вы можете скачивать файлы