Loading...
Error

Скачать Долгий поцелуй на ночь / The Long Kiss Goodnight (Ренни Харлин) [1996, боевик, триллер, драма, криминал, детектив, BDRip-AVC] [MVO]+[Оригинал]+[Sub] торрент без регистрации

 
Статистика раздачи
Размер:  2,1 GB   |    Скачан:  139 раз
Сидов:  1  [  0 KB/s  ]  
 
Автор Сообщение

Marsianka

[] 

Страна: США
Жанр: боевик, триллер, драма, криминал, детектив
Год выпуска: 1996
Продолжительность: 02:00:33
Перевод: Профессиональный (многоголосый, закадровый) + Оригинальный
Субтитры: русские (3 вида), английские.
Слоган: «Eight years ago she lost her memory. Now, a detective must help her remember the past before it buries them both. What's forgotten is not always gone.»

Режиссер: Ренни Харлин / Renny Harlin

В ролях: Джина Дэвис (Samantha Caine, Charly Baltimore), Сэмюэл Л. Джексон (Mitch Henessey), Ивонн Зима (Caitlin Caine), Крэйг Бирко (Timothy), Брайан Кокс (Dr. Nathan Waldman), Том Амандес (Hal), Патрик Мэлахайд (Leland Perkins), Дэвид Морс (Luke, Daedalus), Джозеф МакКенна (One-Eyed Jack), Мелина Канакаредес (Trin), Дэн Уарри-Смит (Raymond), Кристен Боун (Girl #1)

Описание: 8 лет назад школьная учительница Саманта Кейн перенесла полную потерю памяти. Она живет с 8-летней дочкой счастливой семейной жизнью и не подозревает о своем кровавом прошлом, ведь когда-то эта красивая женщина была агентом Чарли Бэлтимор, выполнявшим секретные заказы ЦРУ. Шокированная неожиданным возвращением некоторых навыков и психологической подготовки профессионального киллера, Саманта пытается разобраться в своем прошлом. Детектив Митч Хенесси, начавший с расследования жизни простой учительницы, оказывается втянутым вместе с Самантой в секретную операцию ЦРУ.



MPAA: R - Лицам до 17 лет обязательно присутствие взрослого

Качество: BDRip
Контейнер: MKV

Видео: AVC, 1024x426 (2.40:1), 1913 kbps, 23.976 fps, 0.183 bpp
Аудио 1: русский / AC3 / 5.1 / 48 kHz / 384 kbps
Аудио 2: английский / AC3 / 2.0 / 48 kHz / 192 kbps
Навигация по главам: есть

Семпл

General
Unique ID : 243091365690569470432764012981819724930 (0xB6E1B1ACA4254F5796ED5A42ECA6D482)
Complete name : C:TorrentDolgij.Pozeluj.BDRipAVC.mkv
Format : Matroska
Format version : Version 2
File size : 2.10 GiB
Duration : 2h 0mn
Overall bit rate : 2 489 Kbps
Movie name : = Долгий поцелуй на ночь / The Long Kiss Goodnight BDRip by SC Kosmos =
Encoded date : UTC 2013-01-19 09:04:25
Writing application : mkvmerge v3.3.0 ('Language') gebaut am Mar 24 2010 14:59:24
Writing library : libebml v0.8.0 + libmatroska v0.9.0

Video
ID : 1
Format : AVC
Format/Info : Advanced Video Codec
Format profile : High@L4.1
Format settings, CABAC : Yes
Format settings, ReFrames : 14 frames
Codec ID : V_MPEG4/ISO/AVC
Duration : 2h 0mn
Bit rate : 1 913 Kbps
Width : 1 024 pixels
Height : 426 pixels
Display aspect ratio : 2.40:1
Frame rate : 23.976 fps
Color space : YUV
Chroma subsampling : 4:2:0
Bit depth : 8 bits
Scan type : Progressive
Bits/(Pixel*Frame) : 0.183
Stream size : 1.57 GiB (75%)
Title : Долгий поцелуй на ночь / The Long Kiss Goodnight BDRip by SC Kosmos
Writing library : x264 core 129 r2245 bc13772
Encoding settings : cabac=1 / ref=14 / deblock=1:-2:-2 / analyse=0x3:0x112 / me=umh / subme=11 / psy=1 / psy_rd=1.00:0.15 / mixed_ref=1 / me_range=32 / chroma_me=1 / trellis=2 / 8x8dct=1 / cqm=0 / deadzone=21,11 / fast_pskip=1 / chroma_qp_offset=-3 / threads=12 / lookahead_threads=2 / sliced_threads=0 / nr=0 / decimate=1 / interlaced=0 / bluray_compat=0 / constrained_intra=0 / bframes=10 / b_pyramid=2 / b_adapt=1 / b_bias=0 / direct=3 / weightb=1 / open_gop=0 / weightp=1 / keyint=230 / keyint_min=23 / scenecut=40 / intra_refresh=0 / rc=2pass / mbtree=0 / bitrate=1913 / ratetol=1.0 / qcomp=0.60 / qpmin=0 / qpmax=69 / qpstep=4 / cplxblur=20.0 / qblur=0.5 / ip_ratio=1.40 / pb_ratio=1.30 / aq=1:1.00 / zones=166600,173425,b=0.28
Language : English
Default : No
Forced : No
Color primaries : BT.709-5, BT.1361, IEC 61966-2-4, SMPTE RP177
Transfer characteristics : BT.709-5, BT.1361
Matrix coefficients : BT.709-5, BT.1361, IEC 61966-2-4 709, SMPTE RP177

Audio #1
ID : 2
Format : AC-3
Format/Info : Audio Coding 3
Mode extension : CM (complete main)
Codec ID : A_AC3
Duration : 2h 0mn
Bit rate mode : Constant
Bit rate : 384 Kbps
Channel(s) : 6 channels
Channel positions : Front: L C R, Side: L R, LFE
Sampling rate : 48.0 KHz
Bit depth : 16 bits
Compression mode : Lossy
Stream size : 331 MiB (15%)
Title : MVO
Language : Russian
Default : Yes
Forced : No

Audio #2
ID : 3
Format : AC-3
Format/Info : Audio Coding 3
Mode extension : CM (complete main)
Codec ID : A_AC3
Duration : 2h 0mn
Bit rate mode : Constant
Bit rate : 192 Kbps
Channel(s) : 2 channels
Channel positions : Front: L R
Sampling rate : 48.0 KHz
Bit depth : 16 bits
Compression mode : Lossy
Stream size : 166 MiB (8%)
Language : English
Default : No
Forced : No

Text #1
ID : 4
Format : UTF-8
Codec ID : S_TEXT/UTF8
Codec ID/Info : UTF-8 Plain Text
Language : Russian
Default : Yes
Forced : No

Text #2
ID : 5
Format : UTF-8
Codec ID : S_TEXT/UTF8
Codec ID/Info : UTF-8 Plain Text
Language : Russian
Default : No
Forced : No

Text #3
ID : 6
Format : UTF-8
Codec ID : S_TEXT/UTF8
Codec ID/Info : UTF-8 Plain Text
Language : Russian
Default : No
Forced : No

Text #4
ID : 7
Format : UTF-8
Codec ID : S_TEXT/UTF8
Codec ID/Info : UTF-8 Plain Text
Language : English
Default : No
Forced : No

Menu
00:00:00.000 : en:00:00:00.000
00:09:05.920 : en:00:09:05.920
00:22:07.034 : en:00:22:07.034
00:32:35.871 : en:00:32:35.871
00:47:33.934 : en:00:47:33.934
01:03:52.704 : en:01:03:52.704
01:15:14.593 : en:01:15:14.593
01:28:16.208 : en:01:28:16.208
01:36:53.850 : en:01:36:53.850
01:47:25.022 : en:01:47:25.022



Скачать Долгий.поцелуй.на.ночь.The.Long.Kiss.Goodnight.(Ренни.Харлин).[1996.боевик.триллер.драма.криминал.детектив.BDRip-AVC].[MVO]+[Оригинал]+[Sub].torrent без регистрации
Золото ЗОЛОТАЯ РАЗДАЧА! СКАЧАННОЕ НЕ ЗАСЧИТЫВАЕТСЯ! Золото
Дата: Зарегистрирован   [ Тип: внутренний ] Как тут cкачать?
MAGNET ссылка
MAGNET ссылка


Скачать .torrent

11 KB

Статус: проверено DHT
Скачан: торрент - 139 раз, раздача полностью - 283 раз
Размер: 2,1 GB
Оценка:  5 (Голосов: 3)
Поблагодарили: 5
Поделиться ссылкой на эту раздачу с друзьями:
В контактеFacebookОдноклассникиTwitterLivejournalМой МирLiveinternet
 

 
Показать сообщения:    


Вы не можете начинать темы
Вы не можете отвечать на сообщения
Вы не можете редактировать свои сообщения
Вы не можете удалять свои сообщения
Вы не можете голосовать в опросах
Вы не можете прикреплять файлы к сообщениям
Вы можете скачивать файлы