Loading...
Error

Скачать Ананасовый экспресс: Сижу, курю / Pineapple Express (Дэвид Гордон Грин / David Gordon Green) [2008, комедия, криминал, HDRip] [Unrated] торрент без регистрации

 
Статистика раздачи
Размер:  1,46 GB   |    Скачан:  217 раз
Сидов:  1  [  0 KB/s  ]  
 
Автор Сообщение

МихаНЕзатор

[] 



Ананасовый экспресс: Сижу, курю / Pineapple Express (2008) HDRip-Unrated

Страна: США
Жанр: комедия, криминал
Год выпуска: 2008
Продолжительность: 01:57:26

Перевод: Профессиональный (дублированный)
Cубтитры: русские (на места без перевода) - отдельно
Режиссер: Дэвид Гордон Грин / David Gordon Green

В ролях: Сет Роджен, Джеймс Франко, Дэнни МакБрайд, Кевин Корригэн, Крэйг Робинсон, Гари Коул, Рози Перес, Эд Бегли мл., Нора Данн, Эмбер Хёрд, Артур Напионтек, Клео Кинг, Билл Хадер, Джеймс Ремар, Джонатан Спенсер, Дэна Ли, Бобби Ли, Кен Жонг, Дэвид С. Кук

Описание: Раздолбай и любитель травки случайно становится свидетелем убийства и, прихватив своего дружка, такого же лузера, как он, пытается свалить из города, спасаясь от Плохих Парней. Дело пахнет керосином, ведь мафия решила заставить приятелей замолчать навсегда.

Доп. информация:

Качество видео: HDRip(Исх. BD 1080)
Формат видео: AVI

Видео: 720x304 (2.37:1), 23.976 fps, XviD build 50 ~1322 kbps avg, 0.25 bit/pixel
Аудио: 48 kHz, AC3 Dolby Digital, 3/2 (L,C,R,l,r) + LFE ch, ~448 kbps
Формат субтитров: softsub (SRT)

File: Pineapple.Express.Unrated.chopper887.avi
Title: Pineapple.Express.Unrated.chopper887
Author: chopper887
Genre: Action/Comedy
Category: Movie
Filesize: 1494.96 Mb ( 1 567 578 112 bytes )
Play length: 01:57:26.550 (168948 frames)
Subtitles: Present (SubRip format)
Video: 720x304 (2.37:1), 23.976 fps, XviD build 50 ~1322 kbps avg, 0.25 bit/pixel
Audio: 48 kHz, AC3 Dolby Digital, 3/2 (L,C,R,l,r) + LFE ch, ~448 kbps

General
Complete name : D:Pineapple.Express.Unrated.chopper887Pineapple.Express.Unrated.chopper887.avi
Format : AVI
Format/Info : Audio Video Interleave
File size : 1.46 GiB
Duration : 1h 57mn
Overall bit rate : 1 780 Kbps
Movie name : Pineapple.Express.Unrated.chopper887
Director : chopper887
Genre : Action/Comedy
Writing application : VirtualDubMod 1.5.10.3 | www.virtualdub-fr.org || (build 2550/release)
Original source form/Name : Movie

Video
ID : 0
Format : MPEG-4 Visual
Format profile : Advanced Simple@L5
Format settings, BVOP : Yes
Format settings, QPel : No
Format settings, GMC : No warppoints
Format settings, Matrix : Custom
Codec ID : XVID
Codec ID/Hint : XviD
Duration : 1h 57mn
Bit rate : 1 322 Kbps
Width : 720 pixels
Height : 304 pixels
Display aspect ratio : 2.35:1
Frame rate : 23.976 fps
Color space : YUV
Chroma subsampling : 4:2:0
Bit depth : 8 bits
Scan type : Progressive
Compression mode : Lossy
Bits/(Pixel*Frame) : 0.252
Stream size : 1.08 GiB (74%)
Writing library : XviD 1.2.1 (UTC 2008-12-04)

Audio
ID : 1
Format : AC-3
Format/Info : Audio Coding 3
Mode extension : CM (complete main)
Codec ID : 2000
Duration : 1h 57mn
Bit rate mode : Constant
Bit rate : 448 Kbps
Channel(s) : 6 channels
Channel positions : Front: L C R, Side: L R, LFE
Sampling rate : 48.0 KHz
Bit depth : 16 bits
Compression mode : Lossy
Stream size : 376 MiB (25%)
Alignment : Split accross interleaves
Interleave, duration : 42 ms (1.00 video frame)
Interleave, preload duration : 500 ms



Скачать Ананасовый.экспресс.Сижу.курю.Pineapple.Express.(Дэвид.Гордон.Грин.David.Gordon.Green).[2008.комедия.криминал.HDRip].[Unrated].torrent без регистрации
Золото ЗОЛОТАЯ РАЗДАЧА! СКАЧАННОЕ НЕ ЗАСЧИТЫВАЕТСЯ! Золото
Дата: Зарегистрирован   [ Тип: внутренний ] Как тут cкачать?
MAGNET ссылка
MAGNET ссылка


Скачать .torrent

15 KB

Статус: проверено DHT
Скачан: торрент - 217 раз, раздача полностью - 204 раз
Размер: 1,46 GB
Оценка:  - (Голосов: 0)
Поблагодарили: 2
Поделиться ссылкой на эту раздачу с друзьями:
В контактеFacebookОдноклассникиTwitterLivejournalМой МирLiveinternet
 

 
Показать сообщения:    


Вы не можете начинать темы
Вы не можете отвечать на сообщения
Вы не можете редактировать свои сообщения
Вы не можете удалять свои сообщения
Вы не можете голосовать в опросах
Вы не можете прикреплять файлы к сообщениям
Вы можете скачивать файлы