Loading...
Error

Скачать Лабиринт / Labyrinth (сезон 01) (Кристофер Смит) 2012, драма, приключения, история, BDRip] [MVO (BaibaKo)] торрент без регистрации

 
Статистика раздачи
Размер:  2,5 GB   |    Скачан:  139 раз

Полного источника не было: 19 минут

 
Автор Сообщение

МихаНЕзатор

[] 

Название: Лабиринт
Оригинальное название: Labyrinth
Год выпуска: 2012
Жанр: драма, приключения, история
Режиссер: Кристофер Смит

В ролях: Джон Хёрт, Кейти Макграт, Джессика Браун-Финдлэй, Ванесса Кирби, Эмун Эллиот, Себастиан Стэн, Джанет Сузман, Том Фелтон, Эдриан Голли и др.

Описание: Те люди, которые оказываются в этом лабиринте, могут больше никогда не выбраться из него, ведь он хранит в себе множество тайн и загадок, разгадать которые не под силу даже самым осведомленным и грамотным специалистам. Сериал представляет собой увлекательное приключение, объединяющее две сюжетные линии. В современной археолог Элис Таннер занята раскопками на юге Франции, пытаясь в подземных лабиринтах Каркасона раскрыть тайну исчезновения религиозного движения катаров, которые, согласно легенде, являлись хранителями Святого Грааля. В Средневековой молодая девушка из XIII века пытается понять символы и диаграммы трех вверенных ей священных книг и сохранить свою жизнь



Страна: Германия, Великобритания, ЮАР
Продолжительность: 02 x ~ 01:32:00
Перевод: Профессиональный (многоголосый закадровый) - BaibaKo
Субтитры: нет

Перевод: Янина Галицкая
Озвучка: Лира Грим, Anna_Smile, Владимир Курдов, Алексей Кузнецов
Консультант: Алина Немирова

Качество: BDRip
Формат: AVI
Видео: XVID, ~1500 Кбит/с, 704x400
Аудио rus: MP3, 2 ch, 192 Кбит/с
Аудио eng: MP3, 2 ch, 192 Кбит/с

Релиз от:
Полное имя : D:Dian KehtBaibaKoLabyrinth.s01.BDRip.XviD.Rus.Eng.BaibaKo.tvLabyrinth.s01e01.BDRip.XviD.Rus.Eng.BaibaKo.tv.avi
Формат : AVI
Формат/Информация : Audio Video Interleave
Размер файла : 1,23 Гбайт
Продолжительность : 1 ч. 31 м.
Общий поток : 1912 Кбит/сек

Видео
Идентификатор : 0
Формат : MPEG-4 Visual
Профиль формата : Advanced Simple@L5
Параметр BVOP формата : 2
Параметр QPel формата : Нет
Параметр GMC формата : Без точки перехода
Параметр матрицы формата : Default (H.263)
Идентификатор кодека : XVID
Идентификатор кодека/Подсказка : XviD
Продолжительность : 1 ч. 31 м.
Битрейт : 1520 Кбит/сек
Ширина : 720 пикс.
Высота : 400 пикс.
Соотношение сторон : 16:9
Частота кадров : 25,000 кадр/сек
Цветовое пространство : YUV
Подвыборка цветности : 4:2:0
Битовая глубина : 8 бит
Тип развёртки : Прогрессивная
Метод сжатия : С потерями
Бит/(Пиксели*Кадры) : 0.211
Размер потока : 998 Мбайт (80%)
Библиотека кодирования : XviD 1.2.1 (UTC 2008-12-04)

Аудио #1
Идентификатор : 1
Формат : MPEG Audio
Версия формата : Version 1
Профиль формата : Layer 3
Режим : Joint stereo
Идентификатор кодека : 55
Идентификатор кодека/Подсказка : MP3
Продолжительность : 1 ч. 31 м.
Вид битрейта : Постоянный
Битрейт : 192 Кбит/сек
Каналы : 2 канала
Частота : 48,0 КГц
Метод сжатия : С потерями
Размер потока : 126 Мбайт (10%)
Выравнивание : Соединение по промежуткам
Продолжительность промежутка : 160 мс. (4,00 видеокадра)
Время предзагрузки промежутка : 216 ms
Заголовок : Labyrinth.s01e01.HD1080p.BluRay.Rus.Eng.BaibaKo.tv - [1] Russian_audio
Библиотека кодирования : LAME3.99r
Настройки программы : -m j -V 4 -q 2 -lowpass 18.6 -b 192

Аудио #2
Идентификатор : 2
Формат : MPEG Audio
Версия формата : Version 1
Профиль формата : Layer 3
Режим : Joint stereo
Расширение режима : MS Stereo
Идентификатор кодека : 55
Идентификатор кодека/Подсказка : MP3
Продолжительность : 1 ч. 31 м.
Вид битрейта : Постоянный
Битрейт : 192 Кбит/сек
Каналы : 2 канала
Частота : 48,0 КГц
Метод сжатия : С потерями
Размер потока : 126 Мбайт (10%)
Выравнивание : Соединение по промежуткам
Продолжительность промежутка : 160 мс. (4,00 видеокадра)
Время предзагрузки промежутка : 216 ms
Заголовок : Labyrinth.s01e01.HD1080p.BluRay.Rus.Eng.BaibaKo.tv - [2] English_core_audio
Библиотека кодирования : LAME3.99r
Настройки программы : -m j -V 4 -q 2 -lowpass 18.6 -b 192



Скачать Лабиринт.Labyrinth.(сезон.01).(Кристофер.Смит).2012.драма.приключения.история.BDRip].[MVO.(BaibaKo)].torrent без регистрации
Золото ЗОЛОТАЯ РАЗДАЧА! СКАЧАННОЕ НЕ ЗАСЧИТЫВАЕТСЯ! Золото
Дата: Зарегистрирован   [ Тип: внутренний ] Как тут cкачать?
MAGNET ссылка
MAGNET ссылка


Скачать .torrent

13 KB

Статус: проверено DHT
Скачан: торрент - 139 раз, раздача полностью - 25 раз
Размер: 2,5 GB
Оценка:  4 (Голосов: 1)
Поблагодарили: 2
Поделиться ссылкой на эту раздачу с друзьями:
В контактеFacebookОдноклассникиTwitterLivejournalМой МирLiveinternet
 

 
Показать сообщения:    


Вы не можете начинать темы
Вы не можете отвечать на сообщения
Вы не можете редактировать свои сообщения
Вы не можете удалять свои сообщения
Вы не можете голосовать в опросах
Вы не можете прикреплять файлы к сообщениям
Вы можете скачивать файлы