Loading...
Error

Скачать Лабиринт / Labyrinth (сезон 01) (Кристофер Смит) 2012, драма, приключения, история, BDRip-AVC] [MVO (BaibaKo)] торрент без регистрации

 
Статистика раздачи
Размер:  2,52 GB   |    Скачан:  136 раз
Сидов:  1  [  0 KB/s  ]  
 
Автор Сообщение

МихаНЕзатор

[] 

Название: Лабиринт
Оригинальное название: Labyrinth
Год выпуска: 2012
Жанр: драма, приключения, история
Режиссер: Кристофер Смит

В ролях: Джон Хёрт, Кейти Макграт, Джессика Браун-Финдлэй, Ванесса Кирби, Эмун Эллиот, Себастиан Стэн, Джанет Сузман, Том Фелтон, Эдриан Голли и др.

Описание: Те люди, которые оказываются в этом лабиринте, могут больше никогда не выбраться из него, ведь он хранит в себе множество тайн и загадок, разгадать которые не под силу даже самым осведомленным и грамотным специалистам. Сериал представляет собой увлекательное приключение, объединяющее две сюжетные линии. В современной археолог Элис Таннер занята раскопками на юге Франции, пытаясь в подземных лабиринтах Каркасона раскрыть тайну исчезновения религиозного движения катаров, которые, согласно легенде, являлись хранителями Святого Грааля. В Средневековой молодая девушка из XIII века пытается понять символы и диаграммы трех вверенных ей священных книг и сохранить свою жизнь



Страна: Германия, Великобритания, ЮАР
Продолжительность: 02 x ~ 01:32:00
Перевод: Профессиональный (многоголосый закадровый) - BaibaKo
Субтитры: нет

Перевод: Янина Галицкая
Озвучка: Лира Грим, Anna_Smile, Владимир Курдов, Алексей Кузнецов
Консультант: Алина Немирова

Качество: BDRip-AVC
Формат: МР4
Видео: AVC, ~1500 Кбит/с, 704x400
Аудио rus: AAC, 2 ch, 192 Кбит/с
Аудио eng: AAC, 2 ch, 192 Кбит/с

Релиз от:
олное имя : D:Dian KehtBaibaKoLabyrinth.s01.BDRip.x264.Rus.Eng.BaibaKo.tvLabyrinth.s01e01.BDRip.x264.Rus.Eng.BaibaKo.tv.mp4
Формат : MPEG-4
Профиль формата : Base Media
Идентификатор кодека : isom
Размер файла : 1,23 Гбайт
Продолжительность : 1 ч. 31 м.
Общий поток : 1924 Кбит/сек
Дата кодирования : UTC 2013-03-07 18:25:35
Дата пометки : UTC 2013-03-07 18:25:35

Видео
Идентификатор : 1
Формат : AVC
Формат/Информация : Advanced Video Codec
Профиль формата : Baseline@L3.0
Параметр CABAC формата : Нет
Параметр ReFrames формата : 3 кадра
Идентификатор кодека : avc1
Идентификатор кодека/Информация : Advanced Video Coding
Продолжительность : 1 ч. 31 м.
Вид битрейта : Переменный
Битрейт : 1536 Кбит/сек
Максимальный битрейт : 10000 Кбит/сек
Ширина : 720 пикс.
Высота : 400 пикс.
Соотношение сторон : 16:9
Режим частоты кадров : Постоянный
Частота кадров : 25,000 кадр/сек
Цветовое пространство : YUV
Подвыборка цветности : 4:2:0
Битовая глубина : 8 бит
Тип развёртки : Прогрессивная
Бит/(Пиксели*Кадры) : 0.213
Размер потока : 1008 Мбайт (80%)
Заголовок : Labyrinth 2012 (TV Mini Series disc 1 of 2) 1080p BluRay DTS x264-LEGi0N
Библиотека кодирования : x264 core 129 r2245 bc13772
Настройки программы : cabac=0 / ref=3 / deblock=1:0:0 / analyse=0x1:0x111 / me=hex / subme=7 / psy=1 / psy_rd=1.00:0.00 / mixed_ref=1 / me_range=16 / chroma_me=1 / trellis=1 / 8x8dct=0 / cqm=0 / deadzone=21,11 / fast_pskip=1 / chroma_qp_offset=-2 / threads=6 / lookahead_threads=1 / sliced_threads=0 / nr=0 / decimate=1 / interlaced=0 / bluray_compat=0 / constrained_intra=0 / bframes=0 / weightp=0 / keyint=250 / keyint_min=25 / scenecut=40 / intra_refresh=0 / rc_lookahead=40 / rc=2pass / mbtree=1 / bitrate=1536 / ratetol=1.0 / qcomp=0.60 / qpmin=0 / qpmax=69 / qpstep=4 / cplxblur=20.0 / qblur=0.5 / vbv_maxrate=10000 / vbv_bufsize=10000 / nal_hrd=vbr / ip_ratio=1.40 / aq=1:1.00
Дата кодирования : UTC 2013-03-07 10:02:23
Дата пометки : UTC 2013-03-07 18:28:54

Аудио #1
Идентификатор : 2
Формат : AAC
Формат/Информация : Advanced Audio Codec
Профиль формата : LC
Идентификатор кодека : 40
Продолжительность : 1 ч. 31 м.
Вид битрейта : Переменный
Битрейт : 192 Кбит/сек
Максимальный битрейт : 203 Кбит/сек
Каналы : 2 канала
Расположение каналов : Front: L R
Частота : 48,0 КГц
Метод сжатия : С потерями
Размер потока : 126 Мбайт (10%)
Язык : Russian
Дата кодирования : UTC 2013-03-07 17:40:06
Дата пометки : UTC 2013-03-07 18:28:54

Аудио #2
Идентификатор : 3
Формат : AAC
Формат/Информация : Advanced Audio Codec
Профиль формата : LC
Идентификатор кодека : 40
Продолжительность : 1 ч. 31 м.
Вид битрейта : Переменный
Битрейт : 192 Кбит/сек
Максимальный битрейт : 199 Кбит/сек
Каналы : 2 канала
Расположение каналов : Front: L R
Частота : 48,0 КГц
Метод сжатия : С потерями
Размер потока : 126 Мбайт (10%)
Язык : English
Дата кодирования : UTC 2013-03-07 18:00:43
Дата пометки : UTC 2013-03-07 18:28:54



Скачать Лабиринт.Labyrinth.(сезон.01).(Кристофер.Смит).2012.драма.приключения.история.BDRip-AVC].[MVO.(BaibaKo)].torrent без регистрации
Золото ЗОЛОТАЯ РАЗДАЧА! СКАЧАННОЕ НЕ ЗАСЧИТЫВАЕТСЯ! Золото
Дата: Зарегистрирован   [ Тип: внутренний ] Как тут cкачать?
MAGNET ссылка
MAGNET ссылка


Скачать .torrent

13 KB

Статус: проверено DHT
Скачан: торрент - 136 раз, раздача полностью - 11 раз
Размер: 2,52 GB
Оценка:  - (Голосов: 0)
Поблагодарили: 2
Поделиться ссылкой на эту раздачу с друзьями:
В контактеFacebookОдноклассникиTwitterLivejournalМой МирLiveinternet
 

 
Показать сообщения:    


Вы не можете начинать темы
Вы не можете отвечать на сообщения
Вы не можете редактировать свои сообщения
Вы не можете удалять свои сообщения
Вы не можете голосовать в опросах
Вы не можете прикреплять файлы к сообщениям
Вы можете скачивать файлы