Loading...
Error

Скачать Принцесса Клевская / La princesse de Cleves (La principessa di Cleves, Princess of Cleves) (Жан Деланнуа) [1961, Драма, мелодрама, история, DVDRip] [AVC] [FilmoRay VS Sheikn] [MVO] торрент без регистрации

 
Статистика раздачи
Размер:  2,24 GB   |    Скачан:  114 раз
Сидов:  1  [  0 KB/s  ]  
 
Автор Сообщение

Sheikn

[] 

Информация о фильме
Название: Принцесса Клевская
Оригинальное название: La princesse de Cl?ves
Год выхода: 1961
Жанр: Драма, мелодрама, история
Режиссер: Жан Деланнуа
В ролях: Жан Маре, Марина Влади, Жан-Франсуа Порон, Анни Дюко, Леа Падовани, Раймон Жером, Анри Пьегэ, Пьераль, Иван Доминик, Леа Грэй, Жак Иллинг, Юбер де Лаппаран, Жорж Ликан, Пьер Монкорбье, Жозе Стейнер, Энтони Стюарт, Генри Коте, Анри Куте, Луизетт Россо, Сильвен

О фильме: Действие происходит во Франции XVI века во времена короля Генриха II. Мадемуазель де Шартр, воспитанная в строгих правилах, вызывает всеобщее уважение и восхищение. По настоянию матери, она выходит замуж за принца Клевского, который страстно любит свою жену. Однако принц чувствует, что жена не отвечает ему взаимностью, и это омрачает его счастье. Принцесса Клевская влюбляется в герцога де Немура и рассказывает обо всём своему мужу. Несмотря на верность жены, принц Клевский не может вынести такого известия, он заболевает и умирает. Измученная угрызениями совести, принцесса Клевская хранит верность любящему и уважаемому, но нелюбимому мужу даже после его смерти. Её недолгая жизнь стала примером неповторимой добродетели.



Страна: Франция, Италия / Cin™tel, Enalpa Film, Produzioni, Produzioni Cinematografiche Mediterranee (PCM), Silver Films
Продолжительность: 01:47:44
Перевод: Профессиональный, многоголосый (СТС)
Дата релиза: 08.03.2013

Файл
Кодек: MPEG-4 AVC
Качество: DVDRip (AVC)
Видео: 1024x432, 2550 Кбит/с
Звук: Русский (АС3, 2 ch, 192 Кбит/с) / Французский (АС3, 2 ch, 224 Кбит/с)

Семпл
Unique ID : 236966325732530122842020516770588498392 (0xB2460DE396928D2CB797C613800599D8)
Complete name : Princessa.Klevskaja.1961.х264.DVDRip.(AVС).Filmoray.Sheikn.mkv
Format : Matroska
Format version : Version 1
File size : 2.24 GiB
Duration : 1h 47mn
Overall bit rate : 2 974 Kbps
Writing application : HandBrake 0.9.3
Video #1
ID : 1
Format : AVC
Format/Info : Advanced Video Codec
Format profile : Main@L3.1
Format settings, CABAC : Yes
Format settings, ReFrames : 5 frames
Codec ID : V_MPEG4/ISO/AVC
Duration : 1h 47mn
Bit rate : 2 550 Kbps
Width : 1 024 pixels
Height : 432 pixels
Display aspect ratio : 2.40:1
Frame rate mode : Constant
Frame rate : 25.000 fps
Color space : YUV
Chroma subsampling : 4:2:0
Bit depth : 8 bits
Scan type : Progressive
Bits/(Pixel*Frame) : 0.231
Stream size : 1.88 GiB (84%)
Writing library : x264 core 65
Encoding settings : cabac=1 / ref=5 / deblock=1:-2:-2 / analyse=0x1:0x111 / me=umh / subme=8 / psy_rd=1.0:0.0 / mixed_ref=0 / me_range=25 / chroma_me=1 / trellis=2 / 8x8dct=0 / cqm=0 / deadzone=21,11 / chroma_qp_offset=-2 / threads=6 / nr=0 / decimate=1 / mbaff=0 / bframes=2 / b_pyramid=0 / b_adapt=1 / b_bias=0 / direct=1 / wpredb=0 / keyint=250 / keyint_min=25 / scenecut=40(pre) / rc=2pass / bitrate=2550 / ratetol=1.0 / qcomp=0.60 / qpmin=10 / qpmax=51 / qpstep=4 / cplxblur=20.0 / qblur=0.5 / ip_ratio=1.40 / pb_ratio=1.30 / aq=1:1.00
Language : English
Default : Yes
Forced : No
Color primaries : BT.601 NTSC
Transfer characteristics : BT.709
Matrix coefficients : BT.601
Audio #2
ID : 2
Format : AC-3
Format/Info : Audio Coding 3
Mode extension : CM (complete main)
Format settings, Endianness : Big
Codec ID : A_AC3
Duration : 1h 47mn
Bit rate mode : Constant
Bit rate : 192 Kbps
Channel(s) : 2 channels
Channel positions : Front: L R
Sampling rate : 48.0 KHz
Bit depth : 16 bits
Compression mode : Lossy
Stream size : 148 MiB (6%)
Language : Russian
Default : Yes
Forced : No
Audio #3
ID : 3
Format : AC-3
Format/Info : Audio Coding 3
Mode extension : CM (complete main)
Format settings, Endianness : Big
Codec ID : A_AC3
Duration : 1h 47mn
Bit rate mode : Constant
Bit rate : 224 Kbps
Channel(s) : 2 channels
Channel positions : Front: L R
Sampling rate : 48.0 KHz
Bit depth : 16 bits
Compression mode : Lossy
Stream size : 173 MiB (8%)
Language : French
Default : Yes
Forced : No
* Последняя совместная работа Жана Маре и Жана Деланнуа
* Единственная совместная работа Марины Влади и Жана Маре
* Единственная работа Марины Влади у Жана Деланнуа
Релиз от:



Скачать Принцесса.Клевская.La.princesse.de.Cleves.(La.principessa.di.Cleves.Princess.of.Cleves).(Жан.Деланнуа).[1961.Драма.мелодрама.история.DVDRip].[AVC].[FilmoRay.VS.Sheikn].[MVO].torrent без регистрации
Золото ЗОЛОТАЯ РАЗДАЧА! СКАЧАННОЕ НЕ ЗАСЧИТЫВАЕТСЯ! Золото
Дата: Зарегистрирован   [ Тип: внутренний ] Как тут cкачать?
MAGNET ссылка
MAGNET ссылка


Скачать .torrent

23 KB

Статус: проверено DHT
Скачан: торрент - 114 раз, раздача полностью - 1 раз
Размер: 2,24 GB
Оценка:  - (Голосов: 0)
Поблагодарили: 1
Поделиться ссылкой на эту раздачу с друзьями:
В контактеFacebookОдноклассникиTwitterLivejournalМой МирLiveinternet
 

 
Показать сообщения:    


Вы не можете начинать темы
Вы не можете отвечать на сообщения
Вы не можете редактировать свои сообщения
Вы не можете удалять свои сообщения
Вы не можете голосовать в опросах
Вы не можете прикреплять файлы к сообщениям
Вы можете скачивать файлы