Loading...
Error

Скачать Девять месяцев / Nine Months (Крис Коламбус) [1995, мелодрама, комедия, HDRip] [MVO] торрент без регистрации

 
Статистика раздачи
Размер:  745 MB   |    Скачан:  108 раз
Сидов:  1  [  0 KB/s  ]  
 
Автор Сообщение

Marsianka

[] 

Информация о фильме
Название: Девять месяцев
Оригинальное название: Nine Months
Год выхода: 1995
Жанр: мелодрама, комедия
Режиссер: Крис Коламбус / Chris Columbus
В ролях: Хью Грант, Джулианна Мур, Том Арнольд, Джоан Кьюсак, Джефф Голдблюм, Робин Уильямс, Миа Коттет, Джои Симмрин, Эшли Джонсон, Алекса Вега

О фильме:
Молодая счастливая пара из Сан-Франциско детский психотерапевт Сэмуэл и учительница танцев Ребекка вместе уже пять лет. Ребекка, как всякая нормальная женщина, мечтает о ребенке. Сэмуэл же боится перемен. Начинается отсчет девяти месяцев беременности.
Друг Сэмуэля, художник-неудачник, расстался с своей любимой, потому что не хотел иметь детей. Он говорит, что неожиданная беременность нож в спину мужчины, и на это способны только низкие и подлые женщины. Между влюбленными начинаются ссоры, потому что необходимо искать большую квартиру, большую машину, избавиться от кота.
Ребекка решает, что уйдет от Сэмуэла, если тот не смирится с мыслью о ребенке.



Страна: США
Продолжительность: 01:43:18
Перевод: Профессиональный (многоголосый закадровый)
Файл
Кодек: XviD
Качество: HDRip
Видео: 720x304 (2.35:1), 23.976 fps, 871 Kbps, 0.166 Bits/(Pixel*Frame)
Звук: MP3, 48 KHz, 128 Kbps, 2 channels

Семпл
General
Complete name : D:Devyat'.mesyacev.1995.HDRip.XviD.745mb.avi
Format : AVI
Format/Info : Audio Video Interleave
File size : 745 MiB
Duration : 1h 43mn
Overall bit rate : 1 008 Kbps
Writing application : VirtualDubMod 1.5.10.2 (build 2540/release)
Writing library : VirtualDubMod build 2540/release

Video
ID : 0
Format : MPEG-4 Visual
Format profile : Advanced Simple@L5
Format settings, BVOP : 1
Format settings, QPel : No
Format settings, GMC : No warppoints
Format settings, Matrix : Custom
Codec ID : XVID
Codec ID/Hint : XviD
Duration : 1h 43mn
Bit rate : 871 Kbps
Width : 720 pixels
Height : 304 pixels
Display aspect ratio : 2.35:1
Frame rate : 23.976 fps
Color space : YUV
Chroma subsampling : 4:2:0
Bit depth : 8 bits
Scan type : Progressive
Compression mode : Lossy
Bits/(Pixel*Frame) : 0.166
Stream size : 643 MiB (86%)
Writing library : XviD 1.2.1 (UTC 2008-12-04)

Audio
ID : 1
Format : MPEG Audio
Format version : Version 1
Format profile : Layer 3
Mode : Joint stereo
Mode extension : MS Stereo
Codec ID : 55
Codec ID/Hint : MP3
Duration : 1h 43mn
Bit rate mode : Constant
Bit rate : 128 Kbps
Channel(s) : 2 channels
Sampling rate : 48.0 KHz
Compression mode : Lossy
Stream size : 94.6 MiB (13%)
Alignment : Aligned on interleaves
Interleave, duration : 42 ms (1.00 video frame)
Interleave, preload duration : 504 ms











Скачать Девять.месяцев.Nine.Months.(Крис.Коламбус).[1995.мелодрама.комедия.HDRip].[MVO].torrent без регистрации
Золото ЗОЛОТАЯ РАЗДАЧА! СКАЧАННОЕ НЕ ЗАСЧИТЫВАЕТСЯ! Золото
Дата: Зарегистрирован   [ Тип: внутренний ] Как тут cкачать?
MAGNET ссылка
MAGNET ссылка


Скачать .torrent

15 KB

Статус: проверено DHT
Скачан: торрент - 108 раз, раздача полностью - 4 раз
Размер: 745 MB
Оценка:  5 (Голосов: 1)
Поблагодарили: 2
Поделиться ссылкой на эту раздачу с друзьями:
В контактеFacebookОдноклассникиTwitterLivejournalМой МирLiveinternet
 

 
Показать сообщения:    


Вы не можете начинать темы
Вы не можете отвечать на сообщения
Вы не можете редактировать свои сообщения
Вы не можете удалять свои сообщения
Вы не можете голосовать в опросах
Вы не можете прикреплять файлы к сообщениям
Вы можете скачивать файлы