Loading...
Error

Скачать Цель - Луна / Moonshot (Ричард Дэйл) [2009, документальный, драма, HDRip] [MVO] торрент без регистрации

 
Статистика раздачи
Размер:  1,46 GB   |    Скачан:  129 раз
Сидов:  1  [  0 KB/s  ]  
 
Автор Сообщение

Marsianka

[] 

Цель - Луна / Moonshot

«Они взлетели обычными людьми, а приземлились героями»
Год выпуска: 2009
Страна: США, Великобритания (Dangerous Films)
Жанр: документальный, драма
Продолжительность: 01:30:59
Перевод: Профессиональный (многоголосый, закадровый)

Режиссер: Ричард Дэйл / Richard Dale

В ролях: Джеймс Марстерс, Эндрю Линкольн, Урсула Бертон, Дэниэл Лапэйн, Уильям Хоуп, Анна Максвелл Мартин, Колин Стинтон, Майкл Дж. Рейнольдс, Найджел Уитми, Ричард Диллэйн, Коша Энглер, Тревор Уайт, Йен Портер, Мартин МакДугалл, Дженнифер Вудворд, Натан Нолан, Патрик Полетти, Келли Керслэйк, Каллум Марулло

Описание: 21 июля 1969 года человек впервые ступил на лунную поверхность. Этот фильм, посвященный 40-летней годовщине высадки человека на Луну, - грандиозная реконструкция одного из самых незабываемых событий человеческой истории. Миллиарды людей по всему миру, затаив дыхание, следили за опасной миссией космического корабля Apollo 11, завершившейся абсолютным триумфом. На фоне хорошо известных фактов миссии Apollo 11 в картине разворачивается захватывающая история неизвестнызх доселе обстоятельств подготовки полета: технические сложности и хитросплетениях взаимоотношений астронавтов, кропотливое изложение деталей путешествия, дополненных никогда не публиковавшимися архивными съемками в HD качестве, передовые спецэффекты, воссоздающие во всей полноте этот уникальный экперимент, - все это подарит зрителю редкую возможность погрузиться внутрь истории, изменившей представления человечества о собственных возможностях!



Качество: HDRip
Формат:AVI
Видео кодек: XviD
Аудио кодек: MP3
Видео: 16:9, 2100 Кбит/сек, 720x400, 25,000 кадров/сек
Аудио: MP3, 2 канала, 192 Кбит/сек, 48,0 КГц

Общее
Полное имя : D:Moonshot.2009.avi
Формат : AVI
Формат/Информация : Audio Video Interleave
Размер файла : 1,46 Гбайт
Продолжительность : 1 ч. 30 м.
Общий поток : 2301 Кбит/сек
Программа кодирования : VirtualDubMod 1.5.10.3 | www.virtualdub-fr.org || (build 2550/release)
Библиотека кодирования : VirtualDubMod build 2550/release

Видео
Идентификатор : 0
Формат : MPEG-4 Visual
Профиль формата : Advanced Simple@L5
Параметр BVOP формата : 2
Параметр QPel формата : Нет
Параметр GMC формата : Без точки перехода
Параметр матрицы формата : Default (H.263)
Режим смешивания : Сжатый битовый поток
Идентификатор кодека : XVID
Идентификатор кодека/Подсказка : XviD
Продолжительность : 1 ч. 30 м.
Битрейт : 2100 Кбит/сек
Ширина : 720 пикселей
Высота : 400 пикселей
Соотношение сторон : 16:9
Частота кадров : 25,000 кадров/сек
Цветовое пространство : YUV
Субдискретизация насыщенности : 4:2:0
Битовая глубина : 8 бит
Тип развёртки : Прогрессивная
Метод сжатия : С потерями
Бит/(Пиксели*Кадры) : 0.292
Размер потока : 1,33 Гбайт (91%)
Библиотека кодирования : XviD 1.2.1 (UTC 2008-12-04)

Аудио
Идентификатор : 1
Формат : MPEG Audio
Версия формата : Version 1
Профиль формата : Layer 3
Идентификатор кодека : 55
Идентификатор кодека/Подсказка : MP3
Продолжительность : 1 ч. 30 м.
Вид битрейта : Постоянный
Битрейт : 192 Кбит/сек
Каналы : 2 канала
Частота : 48,0 КГц
Метод сжатия : С потерями
Размер потока : 125 Мбайт (8%)
Выравнивание : Соединение по промежуткам
Продолжительность промежутка : 40 мс. (1,00 видеокадр)
Время предзагрузки промежутка : 504 мс.
Библиотека кодирования : LAME3.99r
Настройки программы : -m s -V 4 -q 2 -lowpass 18.6 -b 192
Релиз от: R.G.RealMT



Скачать Цель.-.Луна.Moonshot.(Ричард.Дэйл).[2009.документальный.драма.HDRip].[MVO].torrent без регистрации
Золото ЗОЛОТАЯ РАЗДАЧА! СКАЧАННОЕ НЕ ЗАСЧИТЫВАЕТСЯ! Золото
Дата: Зарегистрирован   [ Тип: внутренний ] Как тут cкачать?
MAGNET ссылка
MAGNET ссылка


Скачать .torrent

15 KB

Статус: проверено DHT
Скачан: торрент - 129 раз, раздача полностью - 9 раз
Размер: 1,46 GB
Оценка:  - (Голосов: 0)
Поблагодарили: 3
Поделиться ссылкой на эту раздачу с друзьями:
В контактеFacebookОдноклассникиTwitterLivejournalМой МирLiveinternet
 

 
Показать сообщения:    


Вы не можете начинать темы
Вы не можете отвечать на сообщения
Вы не можете редактировать свои сообщения
Вы не можете удалять свои сообщения
Вы не можете голосовать в опросах
Вы не можете прикреплять файлы к сообщениям
Вы можете скачивать файлы