Loading...
Error

Скачать Вспышка / Flashpoint (Уильям Тэннен) [1984, боевик, триллер, детектив, DVDRip-AVC] [Dub]+[AVO]+[AVO]+[Оригинал] торрент без регистрации

 
Статистика раздачи
Размер:  2,1 GB   |    Скачан:  120 раз
Сидов:  1  [  0 KB/s  ]  
 
Автор Сообщение

Marsianka

[] 

Страна: США
Жанр: боевик, триллер, детектив
Год выпуска: 1984
Продолжительность: 01:30:16
Перевод: Профессиональный (полное дублирование)[В вырезанных в советском прокате сценах - закадровый любительский перевод] + Авторский (Михалев Алексей) + Оригинальный

Режиссер: Уильям Тэннен / William Tannen

В ролях: Крис Кристофферсон (Bobby Logan), Трит Уильямс (Ernie Wyatt), Рип Торн (Sheriff Wells), Кевин Конуэй (Brook), Кертвуд Смит (Carson), Мигель Феррер (Roget), Джин Смарт (Doris), Гай Бойд (Lambasino), Марк Слэйд (Hawthorne), Робертс Блоссом (Amarillo), Тесс Харпер (Ellen), Терри Александр (Peterson)
Дублёры: Владимир Прокофьев (Bobby Logan), Владимир Антоник (Ernie Wyatt), Даниил Нетребин (Sheriff Wells), Рудольф Панков (Brook), Алексей Сафонов (Carson), Вадим Андреев (Roget), Александр Белявский, Владимир Ферапонтов (Pedroza), Ян Янакиев (Hinshaw - Pedroza's Attorney)

Описание: Два офицера пограничного патруля случайно находят полузасыпанный песком джип, а в нем скелет, винтовку и 800 000 долларов наличными, что вовлекает их в таинственную историю, начало которой датируется 1963 годом. Эта находка повлекла за собой вереницу захватывающих и насыщенных «экшеном» приключений, ежеминутно грозящих им смертью. И связано это все, возможно, с убийством президента Кеннеди...



MPAA: R - Лицам до 17 лет обязательно присутствие взрослого

Семпл

Качество: DVDRip ( Murya | DVD5[Custom] )
Контейнер: MKV

Видео: AVC, 688x560 @ 978x560 (16:9), 2754 kbps, 25 fps, 0.286 bpp
Аудио 1: русский / AC3 / 2.0 / 48 kHz / 192 kbps
Аудио 2: русский / AC3 / 2.0 / 48 kHz / 192 kbps
Аудио 3: английский / AC3 / 2.0 / 48 kHz / 192 kbps
Навигация по главам: есть

General
Unique ID : 183633569966260451024887726215047769435 (0x8A268A03B88695E08189BFB622F96D5B)
Complete name : C:TorrentVspishka.DVDRipAVC.mkv
Format : Matroska
Format version : Version 2
File size : 2.10 GiB
Duration : 1h 30mn
Overall bit rate : 3 329 Kbps
Movie name : = Вспышка / Flashpoint DVDRip by SC Kosmos =
Encoded date : UTC 2013-03-08 17:21:42
Writing application : mkvmerge v3.3.0 ('Language') gebaut am Mar 24 2010 14:59:24
Writing library : libebml v0.8.0 + libmatroska v0.9.0

Video
ID : 1
Format : AVC
Format/Info : Advanced Video Codec
Format profile : High@L4.1
Format settings, CABAC : Yes
Format settings, ReFrames : 14 frames
Codec ID : V_MPEG4/ISO/AVC
Duration : 1h 30mn
Bit rate : 2 754 Kbps
Width : 688 pixels
Height : 560 pixels
Display aspect ratio : 16:9
Original display aspect ratio : 16:9
Frame rate : 25.000 fps
Color space : YUV
Chroma subsampling : 4:2:0
Bit depth : 8 bits
Scan type : Progressive
Bits/(Pixel*Frame) : 0.286
Stream size : 1.69 GiB (81%)
Title : Вспышка / Flashpoint DVDRip by SC Kosmos
Writing library : x264 core 130 r2273 b3065e6
Encoding settings : cabac=1 / ref=14 / deblock=1:-2:-2 / analyse=0x3:0x112 / me=umh / subme=11 / psy=1 / psy_rd=1.00:0.15 / mixed_ref=1 / me_range=32 / chroma_me=1 / trellis=2 / 8x8dct=1 / cqm=0 / deadzone=21,11 / fast_pskip=1 / chroma_qp_offset=-3 / threads=12 / lookahead_threads=1 / sliced_threads=0 / nr=0 / decimate=1 / interlaced=0 / bluray_compat=0 / constrained_intra=0 / bframes=10 / b_pyramid=2 / b_adapt=1 / b_bias=0 / direct=3 / weightb=1 / open_gop=0 / weightp=1 / keyint=250 / keyint_min=25 / scenecut=40 / intra_refresh=0 / rc=2pass / mbtree=0 / bitrate=2754 / ratetol=1.0 / qcomp=0.60 / qpmin=0 / qpmax=69 / qpstep=4 / cplxblur=20.0 / qblur=0.5 / ip_ratio=1.40 / pb_ratio=1.30 / aq=1:1.00
Language : English
Default : No
Forced : No

Audio #1
ID : 2
Format : AC-3
Format/Info : Audio Coding 3
Mode extension : CM (complete main)
Codec ID : A_AC3
Duration : 1h 30mn
Bit rate mode : Constant
Bit rate : 192 Kbps
Channel(s) : 2 channels
Channel positions : Front: L R
Sampling rate : 48.0 KHz
Bit depth : 16 bits
Compression mode : Lossy
Stream size : 124 MiB (6%)
Title : Дубляж
Language : Russian
Default : Yes
Forced : No

Audio #2
ID : 3
Format : AC-3
Format/Info : Audio Coding 3
Mode extension : CM (complete main)
Codec ID : A_AC3
Duration : 1h 30mn
Bit rate mode : Constant
Bit rate : 192 Kbps
Channel(s) : 2 channels
Channel positions : Front: L R
Sampling rate : 48.0 KHz
Bit depth : 16 bits
Compression mode : Lossy
Stream size : 124 MiB (6%)
Title : AVO [А.Михалев]
Language : Russian
Default : No
Forced : No

Audio #3
ID : 4
Format : AC-3
Format/Info : Audio Coding 3
Mode extension : CM (complete main)
Codec ID : A_AC3
Duration : 1h 30mn
Bit rate mode : Constant
Bit rate : 192 Kbps
Channel(s) : 2 channels
Channel positions : Front: L R
Sampling rate : 48.0 KHz
Bit depth : 16 bits
Compression mode : Lossy
Stream size : 124 MiB (6%)
Language : English
Default : No
Forced : No

Menu
00:00:00.000 : en:Chapter 01
00:07:50.240 : en:Chapter 02
00:14:25.640 : en:Chapter 03
00:23:25.360 : en:Chapter 04
00:28:16.720 : en:Chapter 05
00:33:25.840 : en:Chapter 06
00:40:23.960 : en:Chapter 07
00:46:31.920 : en:Chapter 08
00:55:48.160 : en:Chapter 09
01:00:28.320 : en:Chapter 10
01:05:35.200 : en:Chapter 11
01:17:20.400 : en:Chapter 12
01:26:40.440 : en:Chapter 13
01:29:31.320 : en:Chapter 14



Скачать Вспышка.Flashpoint.(Уильям.Тэннен).[1984.боевик.триллер.детектив.DVDRip-AVC].[Dub]+[AVO]+[AVO]+[Оригинал].torrent без регистрации
Золото ЗОЛОТАЯ РАЗДАЧА! СКАЧАННОЕ НЕ ЗАСЧИТЫВАЕТСЯ! Золото
Дата: Зарегистрирован   [ Тип: внутренний ] Как тут cкачать?
MAGNET ссылка
MAGNET ссылка


Скачать .torrent

11 KB

Статус: проверено DHT
Скачан: торрент - 120 раз, раздача полностью - 8 раз
Размер: 2,1 GB
Оценка:  - (Голосов: 0)
Поблагодарили: 0
Поделиться ссылкой на эту раздачу с друзьями:
В контактеFacebookОдноклассникиTwitterLivejournalМой МирLiveinternet
 

 
Показать сообщения:    


Вы не можете начинать темы
Вы не можете отвечать на сообщения
Вы не можете редактировать свои сообщения
Вы не можете удалять свои сообщения
Вы не можете голосовать в опросах
Вы не можете прикреплять файлы к сообщениям
Вы можете скачивать файлы