Loading...
Error

Скачать Застенок / The Jailhouse (Билли Льюис) [2009, ужасы, триллер, детектив, BDRip-AVC] [MVO]+[Оригинал]+[Sub] торрент без регистрации

 
Статистика раздачи
Размер:  1,45 GB   |    Скачан:  125 раз

Полного источника не было: 19 минут

 
Автор Сообщение

Marsianka

[] 

Застенок / The Jailhouse (2009) BDRip-AVC

Информация о фильме
Название: Застенок
Оригинальное название: The Jailhouse
Год выхода: 2009
Жанр: ужасы, триллер, детектив
Режиссер: Билли Льюис

В ролях: Кен Агиляр, Сири Барук, Даррен Далтон, Билл Джордж, С. Томас Хауэлл, Томми Линдси, Филлип Трой Линджер, Брэндон Люк, Брайан Махони...

О фильме: Получив место шерифа, Сет Делрей с семьей были уверены, что наконец сбылась их мечта. Уютный маленький городок просто рай для их небольшого семейства. Заселившись в предназначенный им дом, супруги были абсолютно счастливы. Но вскоре, случившийся в местной тюрьме пожар, разрушил их недолгую идиллию. Спасшихся заключенных, можно было разместить только в их доме. И вместе с ними, в дом переехали и призраки прошлого. Страшная трагедия, разразившаяся более 30 лет назад, вновь может потрясти маленький городок



Страна: США
Продолжительность: 01:26:50
Перевод: Профессиональный (многоголосый закадровый), Оригинал (Английский)

Файл
Кодек: x.264
Качество: BDRip-AVC
Видео: 1024x436 (2,35:1), 23.976 fps, 1819 kbps, 0.170 bit/pixel
Аудио #1: 48 kHz, AC3 Dolby Digital, 6 ch, ~384.00 kbps (Русский)
Аудио #2: 48 kHz, AC3 Dolby Digital, 2 ch, ~192.00 kbps (Английский)
Субтитры: Русские (отключаемые)
Семпл

&
Общее
Уникальный идентификатор : 221419824339040496812364882488183679255 (0xA693E830FDD74DE4AF1C75DB3C22E917)
Полное имя : D:The Jailhouse.2009.BDRip-AVC.mkv
Формат : Matroska
Версия формата : Version 4 / Version 2
Размер файла : 1,45 Гбайт
Продолжительность : 1 ч. 26 м.
Общий поток : 2392 Кбит/сек
Название фильма : Застенок / The Jailhouse (2009) BDRip-AVC rip by Rulya74
Дата кодирования : UTC 2013-03-10 08:55:29
Программа кодирования : mkvmerge v6.1.0 ('Old Devil') built on Mar 2 2013 14:32:37
Библиотека кодирования : libebml v1.3.0 + libmatroska v1.4.0

Видео
Идентификатор : 1
Формат : AVC
Формат/Информация : Advanced Video Codec
Профиль формата : High@L4.1
Параметр CABAC формата : Да
Параметр ReFrames формата : 12 кадров
Идентификатор кодека : V_MPEG4/ISO/AVC
Продолжительность : 1 ч. 26 м.
Битрейт : 1819 Кбит/сек
Ширина : 1024 пикселя
Высота : 436 пикселей
Соотношение сторон : 2,35:1
Режим частоты кадров : Постоянный
Частота кадров : 23,976 кадра/сек
Цветовое пространство : YUV
Субдискретизация насыщенности : 4:2:0
Битовая глубина : 8 бит
Тип развёртки : Прогрессивная
Бит/(Пиксели*Кадры) : 0.170
Размер потока : 1,07 Гбайт (74%)
Библиотека кодирования : x264 core 130 r2273 b3065e6
Настройки программы : cabac=1 / ref=12 / deblock=1:-3:-3 / analyse=0x3:0x133 / me=umh / subme=11 / psy=1 / psy_rd=1.30:0.16 / mixed_ref=1 / me_range=32 / chroma_me=1 / trellis=2 / 8x8dct=1 / cqm=0 / deadzone=21,11 / fast_pskip=0 / chroma_qp_offset=-3 / threads=12 / lookahead_threads=3 / sliced_threads=0 / nr=0 / decimate=1 / interlaced=0 / bluray_compat=0 / constrained_intra=0 / bframes=11 / b_pyramid=2 / b_adapt=2 / b_bias=0 / direct=3 / weightb=1 / open_gop=0 / weightp=2 / keyint=240 / keyint_min=22 / scenecut=40 / intra_refresh=0 / rc_lookahead=40 / rc=2pass / mbtree=1 / bitrate=1819 / ratetol=1.0 / qcomp=0.60 / qpmin=0 / qpmax=69 / qpstep=4 / cplxblur=20.0 / qblur=0.5 / ip_ratio=1.40 / aq=1:1.00
Default : Да
Forced : Нет

Аудио #1
Идентификатор : 2
Формат : AC-3
Формат/Информация : Audio Coding 3
Расширение режима : CM (complete main)
Параметр Endianness формата : Big
Идентификатор кодека : A_AC3
Продолжительность : 1 ч. 26 м.
Вид битрейта : Постоянный
Битрейт : 384 Кбит/сек
Каналы : 6 каналов
Расположение каналов : Front: L C R, Side: L R, LFE
Частота : 48,0 КГц
Битовая глубина : 16 бит
Метод сжатия : С потерями
Задержка видео : 1 с. 20 мс.
Размер потока : 239 Мбайт (16%)
Заголовок : Профессиональный (многоголосый закадровый)
Язык : Russian
Default : Да
Forced : Нет

Аудио #2
Идентификатор : 3
Формат : AC-3
Формат/Информация : Audio Coding 3
Расширение режима : CM (complete main)
Параметр Endianness формата : Big
Идентификатор кодека : A_AC3
Продолжительность : 1 ч. 26 м.
Вид битрейта : Постоянный
Битрейт : 192 Кбит/сек
Каналы : 2 канала
Расположение каналов : Front: L R
Частота : 48,0 КГц
Битовая глубина : 16 бит
Метод сжатия : С потерями
Размер потока : 119 Мбайт (8%)
Заголовок : Оригинал
Язык : English
Default : Нет
Forced : Нет

Текст
Идентификатор : 4
Формат : UTF-8
Идентификатор кодека : S_TEXT/UTF8
Идентификатор кодека/Информация : UTF-8 Plain Text
Язык : Russian
Default : Да
Forced : Нет



Скачать Застенок.The.Jailhouse.(Билли.Льюис).[2009.ужасы.триллер.детектив.BDRip-AVC].[MVO]+[Оригинал]+[Sub].torrent без регистрации
Золото ЗОЛОТАЯ РАЗДАЧА! СКАЧАННОЕ НЕ ЗАСЧИТЫВАЕТСЯ! Золото
Дата: Зарегистрирован   [ Тип: внутренний ] Как тут cкачать?
MAGNET ссылка
MAGNET ссылка


Скачать .torrent

15 KB

Статус: проверено DHT
Скачан: торрент - 125 раз, раздача полностью - 21 раз
Размер: 1,45 GB
Оценка:  - (Голосов: 0)
Поблагодарили: 2
Поделиться ссылкой на эту раздачу с друзьями:
В контактеFacebookОдноклассникиTwitterLivejournalМой МирLiveinternet
 

 
Показать сообщения:    


Вы не можете начинать темы
Вы не можете отвечать на сообщения
Вы не можете редактировать свои сообщения
Вы не можете удалять свои сообщения
Вы не можете голосовать в опросах
Вы не можете прикреплять файлы к сообщениям
Вы можете скачивать файлы