Loading...
Error

Скачать Бродчерч / Broadchurch (сезон 01) (Эрос Лин, Джеймс Стронг) [2013, драма, детектив, HDTVRip-AVC, WEB-DLRip-AVC] [MVO (Baibako)] торрент без регистрации

 
Статистика раздачи
Размер:  5 GB   |    Скачан:  145 раз
Сидов:  1  [  0 KB/s  ]  
 
Автор Сообщение

МихаНЕзатор

[] 

Название: Бродчерч
Оригинальное название: Broadchurch
Год выпуска: 2013
Жанр: Драма, детектив
Режиссер: Эрос Лин, Джеймс Стронг
В ролях: Дэвид Теннант, Оливия Колман, Эндрю Бачан, Джоди Уиттакер, Уилл Меллор, Артур Дарвилл, Джонатан Бэйли, Вики МакКлюр, Джо Симс, Адам Уилсон

Описание: Жарким июльским утром, в разгар туристического сезона в дорсетском городке под названием Бродчёрч пропадает 11-летний школьник Дэнни Латимер. Его мать, Бет, начинает искать его, тогда как её лучшая подруга, Элли Миллер, офицер местной полиции, выходит из отпуска на работу и обнаруживает, что повышение, на которое она рассчитывала, достаётся детективу-инспектору Алеку Харди, приезжему с репутацией неудачника. Когда тело Дэнни находят под живописными скалами, обрамляющими город, противоположности сталкиваются. И Миллер, и Харди твёрдо намерены решить загадку убийства Дэнни. Элли, возможно, слишком сочувствуя людям из её сообщества, Алек столь же эффективно, сколько и бесстрастно. Когда новость о преступлении разлетается по городу, запускается цепная реакция, которая привлечёт к Бродчёрчу внимание всей страны, вытаскивая на свет город, его обитателей и их секреты.

Страна: Великобритания
Продолжительность: 01 x ~ 00:45:00
Перевод: Профессиональный (многоголосый, закадровый) - Baibako
Субтитры: нет

Качество: HDTVRip-AVC, WEB-DLRip-AVC
Формат: MKV
Видео: MPEG-4 AVC, ~ 1500 Кбит/с, 720x400
Аудио rus: ААС, 2 ch, 192 Кбит/с
Аудио eng: ААС, 2 ch, 192 Кбит/с

Релиз от:

12.08.2013 г. торент обновлён, добавлена 7-8 серия!

Перевод: Татьяна Saavick
Озвучка: Алексей Кузнецов, Светлана Доманова, Татьяна Оболевич, Артемий Мирон
Монтаж: Виталий Мартыняк
Обложка: Татьяна Saavick
Общее
Полное имя : D:Broadchurch.s01e01.HDTVRip.x264.Rus.Eng.BaibaKo.tv.mp4
Формат : MPEG-4
Профиль формата : Base Media
Идентификатор кодека : isom
Размер файла : 637 Мбайт
Продолжительность : 46 м.
Общий поток : 1924 Кбит/сек
Дата кодирования : UTC 2013-03-09 13:23:16
Дата пометки : UTC 2013-03-09 13:23:16

Видео
Идентификатор : 1
Формат : AVC
Формат/Информация : Advanced Video Codec
Профиль формата : Baseline@L3.0
Параметр CABAC формата : Нет
Параметр ReFrames формата : 3 кадра
Идентификатор кодека : avc1
Идентификатор кодека/Информация : Advanced Video Coding
Продолжительность : 46 м.
Вид битрейта : Переменный
Битрейт : 1536 Кбит/сек
Максимальный битрейт : 10000 Кбит/сек
Ширина : 720 пикс.
Высота : 400 пикс.
Соотношение сторон : 16:9
Режим частоты кадров : Постоянный
Частота кадров : 25,000 кадр/сек
Цветовое пространство : YUV
Подвыборка цветности : 4:2:0
Битовая глубина : 8 бит
Тип развёртки : Прогрессивная
Бит/(Пиксели*Кадры) : 0.213
Размер потока : 509 Мбайт (80%)
Заголовок : broadchurch s01e01 720p hdtv x264-tla
Библиотека кодирования : x264 core 129 r2245 bc13772
Настройки программы : cabac=0 / ref=3 / deblock=1:0:0 / analyse=0x1:0x111 / me=hex / subme=7 / psy=1 / psy_rd=1.00:0.00 / mixed_ref=1 / me_range=16 / chroma_me=1 / trellis=1 / 8x8dct=0 / cqm=0 / deadzone=21,11 / fast_pskip=1 / chroma_qp_offset=-2 / threads=6 / lookahead_threads=1 / sliced_threads=0 / nr=0 / decimate=1 / interlaced=0 / bluray_compat=0 / constrained_intra=0 / bframes=0 / weightp=0 / keyint=250 / keyint_min=25 / scenecut=40 / intra_refresh=0 / rc_lookahead=40 / rc=2pass / mbtree=1 / bitrate=1536 / ratetol=1.0 / qcomp=0.60 / qpmin=0 / qpmax=69 / qpstep=4 / cplxblur=20.0 / qblur=0.5 / vbv_maxrate=10000 / vbv_bufsize=10000 / nal_hrd=vbr / ip_ratio=1.40 / aq=1:1.00
Дата кодирования : UTC 2013-03-07 13:05:26
Дата пометки : UTC 2013-03-09 13:24:53

Аудио #1
Идентификатор : 2
Формат : AAC
Формат/Информация : Advanced Audio Codec
Профиль формата : LC
Идентификатор кодека : 40
Продолжительность : 46 м.
Вид битрейта : Переменный
Битрейт : 192 Кбит/сек
Максимальный битрейт : 200 Кбит/сек
Каналы : 2 канала
Расположение каналов : Front: L R
Частота : 48,0 КГц
Метод сжатия : С потерями
Размер потока : 63,6 Мбайт (10%)
Язык : Russian
Дата кодирования : UTC 2013-03-09 13:04:52
Дата пометки : UTC 2013-03-09 13:24:53

Аудио #2
Идентификатор : 3
Формат : AAC
Формат/Информация : Advanced Audio Codec
Профиль формата : LC
Идентификатор кодека : 40
Продолжительность : 46 м.
Вид битрейта : Переменный
Битрейт : 192 Кбит/сек
Максимальный битрейт : 197 Кбит/сек
Каналы : 2 канала
Расположение каналов : Front: L R
Частота : 48,0 КГц
Метод сжатия : С потерями
Размер потока : 63,6 Мбайт (10%)
Язык : English
Дата кодирования : UTC 2013-03-08 22:50:46
Дата пометки : UTC 2013-03-09 13:24:53



Скачать Бродчерч.Broadchurch.(сезон.01).(Эрос.Лин.Джеймс.Стронг).[2013.драма.детектив.HDTVRip-AVC.WEB-DLRip-AVC].[MVO.(Baibako)].torrent без регистрации
Золото ЗОЛОТАЯ РАЗДАЧА! СКАЧАННОЕ НЕ ЗАСЧИТЫВАЕТСЯ! Золото
Дата: Зарегистрирован   [ Тип: внутренний ] Как тут cкачать?
MAGNET ссылка
MAGNET ссылка


Скачать .torrent

26 KB

Статус: проверено DHT
Скачан: торрент - 145 раз, раздача полностью - 8 раз
Размер: 5 GB
Оценка:  - (Голосов: 0)
Поблагодарили: 0
Поделиться ссылкой на эту раздачу с друзьями:
В контактеFacebookОдноклассникиTwitterLivejournalМой МирLiveinternet
 

 

МихаНЕзатор

[] 

Раздача обновлена.
 
Показать сообщения:    


Вы не можете начинать темы
Вы не можете отвечать на сообщения
Вы не можете редактировать свои сообщения
Вы не можете удалять свои сообщения
Вы не можете голосовать в опросах
Вы не можете прикреплять файлы к сообщениям
Вы можете скачивать файлы