Loading...
Error

Скачать Тайна в его глазах / El secreto de sus ojos (Хуан Хосе Кампанелла) [2009, триллер, драма, криминал, детектив, BDRip] [720p] [Freeisland] торрент без регистрации

 
Статистика раздачи
Размер:  4,1 GB   |    Скачан:  120 раз
Сидов:  1  [  0 KB/s  ]  
 
Автор Сообщение

МихаНЕзатор

[] 

Информация о фильме
Название: Тайна в его глазах
Оригинальное название: El secreto de sus ojos
Год выхода: 2009
Жанр: триллер, драма, криминал, детектив
Режиссер: Хуан Хосе Кампанелла
В ролях: Рикардо Дарин, Соледад Вилламил, Пабло Раго, Хавьер Годино, Гильермо Франселла, Хосе Луис Джиоиа, Карла Кьюведо, Барбара Палладино, Марио Аларкон

О фильме:
Бенджамин Эспозито - судебный служащий, который решает написать роман об одном уголовном деле, в котором он был свидетелем и главным действующим лицом...


Страна: Испания, Аргентина
Продолжительность: 02:09:15
Перевод: Профессиональный (многоголосый закадровый)
Авторский (Одноголосый закадровый, Ю.Сербин)

Файл
Кодек: х.264
Качество: BDRip 720p
Видео: 1280х544,3332 Кбит/сек,23,976 кадр/сек,0.200bit/pixel
Звук:
АС-3,448 Кбит/сек,6 канала(ов),48,0 КГц
DTS,755 Кбит/сек,6 канала(ов),24 бит,48,0 КГц
Субтитры: Русские, Французские, Английские,VobSub

Семпл

Уникальный идентификатор : 181575215257915152726000251396370505644 (0x889A1D4AC8F21CEC8A74279AC6F49FAC)
Полное имя : D:торрентTayna.v.ego.glazah.2009.x264.BDRip.720p.mkv
Формат : Matroska
Размер файла : 4,10 Гбайт
Продолжительность : 2 ч. 9 м.
Общий поток : 4544 Кбит/сек
Дата кодирования : UTC 2011-02-28 07:52:05
Программа кодирования : mkvmerge v4.4.0 ('Die Wiederkehr') сборка от Oct 31 2010 21:52:48
Библиотека кодирования : libebml v1.0.0 + libmatroska v1.0.0

Видео
Идентификатор : 1
Формат : AVC
Формат/Информация : Advanced Video Codec
Профиль формата : High@L5.0
Параметр CABAC формата : Да
Параметр ReFrames формата : 16 кадры
Режим смешивания : Header stripping
Идентификатор кодека : V_MPEG4/ISO/AVC
Продолжительность : 2 ч. 9 м.
Битрейт : 3332 Кбит/сек
Ширина : 1280 пикс.
Высота : 544 пикс.
Соотношение сторон : 2,35:1
Частота кадров : 23,976 кадр/сек
Цветовое пространство : YUV
Подвыборка цветности : 4:2:0
Битовая глубина : 8 бит
Тип развёртки : Прогрессивная
Бит/(Пиксели*Кадры) : 0.200
Размер потока : 2,93 Гбайт (72%)
Заголовок : Freeisland
Библиотека кодирования : x264 core 114 r1913 5fd3dce
Настройки программы : cabac=1 / ref=16 / deblock=1:-3:-3 / analyse=0x3:0x113 / me=umh / subme=7 / psy=1 / psy_rd=1.00:0.15 / mixed_ref=1 / me_range=32 / chroma_me=1 / trellis=1 / 8x8dct=1 / cqm=0 / deadzone=21,11 / fast_pskip=1 / chroma_qp_offset=-3 / threads=6 / sliced_threads=0 / nr=0 / decimate=1 / interlaced=0 / constrained_intra=0 / bframes=8 / b_pyramid=2 / b_adapt=2 / b_bias=0 / direct=3 / weightb=1 / open_gop=0 / weightp=2 / keyint=250 / keyint_min=23 / scenecut=40 / intra_refresh=0 / rc_lookahead=50 / rc=2pass / mbtree=1 / bitrate=3332 / ratetol=1.0 / qcomp=0.60 / qpmin=0 / qpmax=69 / qpstep=4 / cplxblur=20.0 / qblur=0.5 / ip_ratio=1.40 / aq=1:1.00
Язык : English

Аудио #1
Идентификатор : 2
Формат : AC-3
Формат/Информация : Audio Coding 3
Расширение режима : CM (complete main)
Режим смешивания : Header stripping
Идентификатор кодека : A_AC3
Продолжительность : 2 ч. 9 м.
Вид битрейта : Постоянный
Битрейт : 448 Кбит/сек
Канал(ы) : 6 канала(ов)
Расположение каналов : Front: L C R, Side: L R, LFE
Частота : 48,0 КГц
Битовая глубина : 16 бит
Метод сжатия : С потерями
Размер потока : 414 Мбайт (10%)
Язык : Russian

Аудио #2
Идентификатор : 3
Формат : DTS
Формат/Информация : Digital Theater Systems
Режим смешивания : Header stripping
Идентификатор кодека : A_DTS
Продолжительность : 2 ч. 9 м.
Вид битрейта : Постоянный
Битрейт : 755 Кбит/сек
Канал(ы) : 6 канала(ов)
Расположение каналов : Front: L C R, Side: L R, LFE
Частота : 48,0 КГц
Битовая глубина : 24 бит
Метод сжатия : С потерями
Задержка видео : 11 мс.
Размер потока : 698 Мбайт (17%)
Язык : Russian

Текст #1
Идентификатор : 4
Формат : VobSub
Режим смешивания : zlib
Идентификатор кодека : S_VOBSUB
Идентификатор кодека/Информация : The same subtitle format used on DVDs
Язык : Russian

Текст #2
Идентификатор : 5
Формат : VobSub
Режим смешивания : zlib
Идентификатор кодека : S_VOBSUB
Идентификатор кодека/Информация : The same subtitle format used on DVDs
Язык : French

Текст #3
Идентификатор : 6
Формат : VobSub
Режим смешивания : zlib
Идентификатор кодека : S_VOBSUB
Идентификатор кодека/Информация : The same subtitle format used on DVDs
Язык : English

Меню
00:00:00.000 : en:00:00:00.000
00:10:03.061 : en:00:10:03.061
00:18:46.917 : en:00:18:46.917
00:26:59.701 : en:00:26:59.701
00:33:27.589 : en:00:33:27.589
00:40:40.396 : en:00:40:40.396
00:47:17.334 : en:00:47:17.334
00:55:41.421 : en:00:55:41.421
01:00:35.841 : en:01:00:35.841
01:05:49.946 : en:01:05:49.946
01:16:23.579 : en:01:16:23.579
01:25:10.981 : en:01:25:10.981
01:34:59.110 : en:01:34:59.110
01:39:37.597 : en:01:39:37.597
01:46:36.265 : en:01:46:36.265
01:55:26.545 : en:01:55:26.545


Релиз от:






Скачать Тайна.в.его.глазах.El.secreto.de.sus.ojos.(Хуан.Хосе.Кампанелла).[2009.триллер.драма.криминал.детектив.BDRip].[720p].[Freeisland].torrent без регистрации
Золото ЗОЛОТАЯ РАЗДАЧА! СКАЧАННОЕ НЕ ЗАСЧИТЫВАЕТСЯ! Золото
Дата: Зарегистрирован   [ Тип: внутренний ] Как тут cкачать?
MAGNET ссылка
MAGNET ссылка


Скачать .torrent

21 KB

Статус: проверено DHT
Скачан: торрент - 120 раз, раздача полностью - 5 раз
Размер: 4,1 GB
Оценка:  5 (Голосов: 1)
Поблагодарили: 2
Поделиться ссылкой на эту раздачу с друзьями:
В контактеFacebookОдноклассникиTwitterLivejournalМой МирLiveinternet
 

 
Показать сообщения:    


Вы не можете начинать темы
Вы не можете отвечать на сообщения
Вы не можете редактировать свои сообщения
Вы не можете удалять свои сообщения
Вы не можете голосовать в опросах
Вы не можете прикреплять файлы к сообщениям
Вы можете скачивать файлы