Loading...
Error

Скачать Гранд Отель / Gran Hotel (03х01-05 из 08) (Карлос Седес, Сильвия Квир, Хорхе Санчес-Кабесудо) [2012, драма, HDTVRip] [MVO (DreamRecords)] торрент без регистрации

 
Статистика раздачи
Размер:  4,3 GB   |    Скачан:  149 раз
Сидов:  1  [  0 KB/s  ]  
 
Автор Сообщение

МихаНЕзатор

[] 

Название: Гранд Отель
Оригинальное название: Gran Hotel
Год выпуска: 2013
Жанр: Драма
Режиссер: Карлос Седес, Сильвия Квир, Хорхе Санчес-Кабесудо

В ролях: Йон Гонсалес (Хулио Ольмедо), Амайя Саламанка (Алисия Аларкон), Адриана Осорес (донья Тереса), Педро Алонсо (Диего), Элой Асорин (Хавьер Аларкон), Феле Мартинес (Альфредо Вергара), Иван Моралес (Себастьян)

Описание: Действие происходит в 1905 году. Молодой человек Хулио приезжает в идиллическое место Гранд отель, где он намерен выяснить причины исчезновение своей сестры. Но на пути его расследования встретится Алисия Аларкон, член семьи владельца отеля, и которая станет единственным человеком, готовым помочь ему раскрыть правду. Между ними начнется невозможная история любви. Им мешает то обстоятельство, что Алисия помолвлена с Диего, амбициозным юношей, который готов на всё, чтобы стать директором Гранд Отеля

Страна: Испания
Продолжительность: 01 х ~ 01:15:00
Перевод: Профессиональный (многоголосый закадровый) - DreamRecords
Субтитры: Нет

Перевод: Дарья Селиверстова
Озвучка: Михаил Суслов, Владимир Чистохин, Светлана Чистохина, Мила Мирелли
Работа со звуком: Алексей Фокин

Релиз от:

Качество: HDTVRip
Формат: AVI
Видео: XviD, 720x400, 1245 Kbps
Аудио: MP3, 48 kHz, 2 ch, 192 kbps

028.05.2013 г. торент обновлён, добавлена 5-я серия!
Format : AVI
Format/Info : Audio Video Interleave
File size : 920 MiB
Duration : 1h 25mn
Overall bit rate : 1 497 Kbps
Writing application : VirtualDubModRus 1.5.10.2 (build 2542/release)
Writing library : VirtualDubMod build 2542/release

Video
ID : 0
Format : MPEG-4 Visual
Format profile : Advanced Simple@L5
Format settings, BVOP : 1
Format settings, QPel : No
Format settings, GMC : No warppoints
Format settings, Matrix : Default (MPEG)
Codec ID : XVID
Codec ID/Hint : XviD
Duration : 1h 25mn
Bit rate : 1 295 Kbps
Width : 720 pixels
Height : 400 pixels
Display aspect ratio : 16:9
Frame rate : 25.000 fps
Color space : YUV
Chroma subsampling : 4:2:0
Bit depth : 8 bits
Scan type : Progressive
Compression mode : Lossy
Bits/(Pixel*Frame) : 0.180
Stream size : 796 MiB (87%)
Writing library : XviD 64

Audio
ID : 1
Format : MPEG Audio
Format version : Version 1
Format profile : Layer 3
Mode : Joint stereo
Codec ID : 55
Codec ID/Hint : MP3
Duration : 1h 25mn
Bit rate mode : Constant
Bit rate : 192 Kbps
Channel(s) : 2 channels
Sampling rate : 48.0 KHz
Compression mode : Lossy
Stream size : 118 MiB (13%)
Alignment : Aligned on interleaves
Interleave, duration : 40 ms (1.00 video frame)
Interleave, preload duration : 504 ms



Скачать Гранд.Отель.Gran.Hotel.(03х01-05.из.08).(Карлос.Седес.Сильвия.Квир.Хорхе.Санчес-Кабесудо).[2012.драма.HDTVRip].[MVO.(DreamRecords)].torrent без регистрации
Золото ЗОЛОТАЯ РАЗДАЧА! СКАЧАННОЕ НЕ ЗАСЧИТЫВАЕТСЯ! Золото
Дата: Зарегистрирован   [ Тип: внутренний ] Как тут cкачать?
MAGNET ссылка
MAGNET ссылка


Скачать .torrent

12 KB

Статус: проверено DHT
Скачан: торрент - 149 раз, раздача полностью - 8 раз
Размер: 4,3 GB
Оценка:  - (Голосов: 0)
Поблагодарили: 0
Поделиться ссылкой на эту раздачу с друзьями:
В контактеFacebookОдноклассникиTwitterLivejournalМой МирLiveinternet
 

 

МихаНЕзатор

[] 

Раздача обновлена.
 
Показать сообщения:    


Вы не можете начинать темы
Вы не можете отвечать на сообщения
Вы не можете редактировать свои сообщения
Вы не можете удалять свои сообщения
Вы не можете голосовать в опросах
Вы не можете прикреплять файлы к сообщениям
Вы можете скачивать файлы