Loading...
Error

Скачать Загадочная история Бенджамина Баттона / The Curious Case of Benjamin (Дэвид Финчер) [2008, фантастика, драма, HDRip] [AVO] торрент без регистрации

 
Статистика раздачи
Размер:  2,05 GB   |    Скачан:  140 раз
Сидов:  1  [  0 KB/s  ]  
 
Автор Сообщение

Marsianka

[] 


«Я родился при странных обстоятельствах»

Информация о фильме
Название: Загадочная история Бенджамина Баттона
Оригинальное название: The Curious Case of Benjamin
Год выхода: 2008
Жанр: фантастика, драма
Режиссер: Дэвид Финчер
В ролях: Брэд Питт, Кейт Бланшетт, Джулия Ормонд, Фаун А. Чэмберс, Элиас Котеас, Донна ДюПлантье, Джейкоб Вуд, Эрл Мэддокс, Эд Метцгер, Джейсон Флеминг
О фильме:
Фильм о мужчине, который родился в возрасте 80-ти лет, а затем начал молодеть. Этот человек, как и каждый из нас, не мог остановить время. Его путь в ХХI век, берущий свое начало в Новом Орлеане в 1918-м году в самом конце Первой Мировой войны, будет столь необычен, что вряд ли мог иметь место в жизни кого-либо другого. Фильм повествует о судьбе уникального человека, о людях и событиях, что ждут его впереди, о любви, которую он обретет и потеряет, о радостях жизни и грусти потерь и о том, что остается с нами вне времени.

Страна: США
Продолжительность: 02:46:03
Перевод: Авторский (одноголосый закадровый) - Юрий Сербин

Файл
Кодек: XviD
Формат: AVI
Качество: HDRip
Видео: 720х304 , 23.976 fps, ~ 1372 Kbps
Звук: 48 kHz, АС3, 6 ch, 384 Kbps

Оскар, 2009 год
Победитель (3):

Лучшие декорации
Лучшие визуальные эффекты
Лучший грим

Номинации (10):

Лучший фильм
Лучшая мужская роль (Брэд Питт)
Лучшая женская роль второго плана (Тараджи П. Хенсон)
Лучший режиссер (Дэвид Финчер)
Лучший адаптированный сценарий
Лучшая работа оператора
Лучшие костюмы
Лучший звук
Лучший монтаж
Лучший саундтрек
==========================================
Золотой глобус, 2009 год
Номинации (5):

Лучший фильм (драма)
Лучшая мужская роль (драма) (Брэд Питт)
Лучший режиссер (Дэвид Финчер)
Лучший сценарий
Лучший саундтрек
==========================================
Премия канала «MTV», 2009 год
Номинации (1):

Лучшая женская роль (Тараджи П. Хенсон)

==========================================
Британская академия, 2009 год
Победитель (3):

Лучшие визуальные эффекты
Лучшая работа художника-постановщика
Лучший грим/прически

Номинации (8):

Лучший фильм
Лучшая мужская роль (Брэд Питт)
Лучший режиссер (Дэвид Финчер)
Лучший адаптированный сценарий
Лучшая работа оператора
Лучшие костюмы
Лучший монтаж
Лучший саундтрек
==========================================

Сатурн, 2009 год
Победитель (3):

Лучший фэнтези-фильм
Лучшая актриса второго плана (Тильда Суинтон)
Лучший грим

Номинации (6):

Лучший режиссер (Дэвид Финчер)
Лучший актер (Брэд Питт)
Лучшая актриса (Кейт Бланшетт)
Лучший сценарий
Лучшие спецэффекты
Лучшая музыка
D:архивЗагадочная история Бенджамина БаттонаZagadochnaya istoriya.HDRip..avi
General
Complete name : D:архивЗагадочная история Бенджамина БаттонаZagadochnaya istoriya.HDRip..avi
Format : AVI
Format/Info : Audio Video Interleave
Format profile : OpenDML
File size : 2.05 GiB
Duration : 2h 46mn
Overall bit rate : 1 768 Kbps
Movie name : Загадочная история
Director : ОСКАР 2009
Genre : Детектив,Драма
Writing application : VirtualDubModRus 1.5.10.2 (build 2542/release)
Writing library : VirtualDubMod build 2542/release
Copyright : X-Torrents.org
Video #0
ID : 0
Format : MPEG-4 Visual
Format profile : Advanced Simple@L5
Format settings, BVOP : 2
Format settings, QPel : No
Format settings, GMC : No warppoints
Format settings, Matrix : Default (H.263)
Muxing mode : Packed bitstream
Codec ID : XVID
Codec ID/Hint : XviD
Duration : 2h 46mn
Bit rate : 1 372 Kbps
Width : 720 pixels
Height : 304 pixels
Display aspect ratio : 2.35:1
Frame rate : 23.976 fps
Color space : YUV
Chroma subsampling : 4:2:0
Bit depth : 8 bits
Scan type : Progressive
Compression mode : Lossy
Bits/(Pixel*Frame) : 0.261
Stream size : 1.59 GiB (78%)
Writing library : XviD 64
Audio #1
ID : 1
Format : AC-3
Format/Info : Audio Coding 3
Mode extension : CM (complete main)
Codec ID : 2000
Duration : 2h 46mn
Bit rate mode : Constant
Bit rate : 384 Kbps
Channel(s) : 6 channels
Channel positions : Front: L C R, Side: L R, LFE
Sampling rate : 48.0 KHz
Bit depth : 16 bits
Compression mode : Lossy
Stream size : 456 MiB (22%)
Alignment : Aligned on interleaves
Interleave, duration : 42 ms (1.00 video frame)
Interleave, preload duration : 512 ms
Title : Ю.Сербин



Скачать Загадочная.история.Бенджамина.Баттона.The.Curious.Case.of.Benjamin.(Дэвид.Финчер).[2008.фантастика.драма.HDRip].[AVO].torrent без регистрации
Золото ЗОЛОТАЯ РАЗДАЧА! СКАЧАННОЕ НЕ ЗАСЧИТЫВАЕТСЯ! Золото
Дата: Зарегистрирован   [ Тип: внутренний ] Как тут cкачать?
MAGNET ссылка
MAGNET ссылка


Скачать .torrent

11 KB

Статус: проверено DHT
Скачан: торрент - 140 раз, раздача полностью - 223 раз
Размер: 2,05 GB
Оценка:  - (Голосов: 0)
Поблагодарили: 0
Поделиться ссылкой на эту раздачу с друзьями:
В контактеFacebookОдноклассникиTwitterLivejournalМой МирLiveinternet
 

 
Показать сообщения:    


Вы не можете начинать темы
Вы не можете отвечать на сообщения
Вы не можете редактировать свои сообщения
Вы не можете удалять свои сообщения
Вы не можете голосовать в опросах
Вы не можете прикреплять файлы к сообщениям
Вы можете скачивать файлы