Loading...
Error

Скачать Виллоу / Willow (Рон Ховард / Ron Howard) [1988 г., Фэнтези, BDRip] 3х[MVO] + [AVO] (А. Гаврилов) торрент без регистрации

 
Статистика раздачи
Размер:  1,06 GB   |    Скачан:  103 раза
Сидов:  1  [  0 KB/s  ]  
 
Автор Сообщение

leon030982

[] 

Виллоу / Willow
«Beyond Good... Beyond Evil... Beyond your wildest imagination...»

Страна: США
Жанр: Фэнтези
Год выпуска: 1988
Продолжительность: 02:05:55
Перевод 1: Профессиональный (многоголосый закадровый)
Перевод 2: Авторский (одноголосый закадровый) [Андрей Гаврилов] [отдельно]
Перевод 3: Профессиональный (многоголосый закадровый) [отдельно]
Перевод 4: Профессиональный (многоголосый закадровый) [отдельно]
Субтитры: нет
Режиссер: Рон Ховард / Ron Howard
В ролях: Вэл Килмер, Джоэнн Уэлли, Уорвик Дэвис, Жан Марш, Патриция Хейс, Билли Барти, Пэт Роуч, Гэвэн О’Херлихи, Дэвид Стейнберг, Фил Фондакаро
Описание: Великолепная сказочная комедия для всей семьи. Трогательная история с участием драконов, злой колдуньи, волшебства и дружбы. Житель деревушки лилипутов Виллоу Афгуд мечтает стать добрым волшебником и занять место своего учителя - великого мага и чародея. Приключения начинаются, когда Виллоу вместе со своими детьми обнаруживает младенца "больших людей" в корзине, которую река прибила к берегу неподалеку от их дома. Пытаясь вернуть ребенка "большим людям", он оказывается вовлеченным в борьбу против злой королевы - колдуньи Бавморды. В своих скитаниях Виллоу встречает Сумасшедшего Мартигана, бывшего солдата и вора. Хотя Мартиган и Виллоу непрерывно спорят друг с другом, в беде они всегда неразлучные друзья. Смогут ли они, преодолев трудности на своем пути, уничтожить коварную королеву?
Сэмпл | IMDB | КиноПоиск
Качество видео: BDRip
Формат видео: AVI
Видео: 608x256 (2.38:1), 23.976 fps, XviD build 50, 702 kbps avg, 0.19 bit/pixel
Аудио 1: 48 kHz, MPEG Layer 3, 2 ch, 112.00 kbps avg [Russian_MVO_1]
Аудио 2: 48 kHz, MPEG Layer 3, 2 ch, 128.00 kbps avg [Russian_AVO_Гаврилов] [отдельно]
Аудио 3: 48 kHz, MPEG Layer 3, 2 ch, 128.00 kbps avg [Russian_MVO_2] [отдельно]
Аудио 4: 48 kHz, MPEG Layer 3, 2 ch, 128.00 kbps avg [Russian_MVO_3] [отдельно]
Начало фильма:
- "В то время, когда страх царил повсюду..." [MVO_1 (в контейнере)]
- "Это время ужаса..." [MVO_2 (отдельно)]
- "Это время страха..." [MVO_3 (отдельно)]

Эпизод в конце фильма:
- "Неси ребенка назад, коротышка..." [MVO_1 (в контейнере)]
- "Верни этого ребенка, гном..." [MVO_2 (отдельно)]
- "Отдай мне ребенка, коротышка" [MVO_3 (отдельно)]
General
Complete name : E:\Мои раздачи\Willow_BDRip_RG_All_Films_[745]\Willow_BDRip_RG_All_Films.avi
Format : AVI
Format/Info : Audio Video Interleave
File size : 742 MiB
Duration : 2h 5mn
Overall bit rate : 824 Kbps
Writing application : VirtualDubMod 1.6.0.0 SURROUND (build 2560/release)
Writing library : VirtualDubMod build 2560/release
Video
ID : 0
Format : MPEG-4 Visual
Format profile : Advanced Simple@L5
Format settings, BVOP : Yes
Format settings, QPel : No
Format settings, GMC : No warppoints
Format settings, Matrix : Custom
Codec ID : XVID
Codec ID/Hint : XviD
Duration : 2h 5mn
Bit rate : 703 Kbps
Width : 608 pixels
Height : 256 pixels
Display aspect ratio : 2.35:1
Frame rate : 23.976 fps
Color space : YUV
Chroma subsampling : 4:2:0
Bit depth : 8 bits
Scan type : Progressive
Compression mode : Lossy
Bits/(Pixel*Frame) : 0.188
Stream size : 633 MiB (85%)
Writing library : XviD 1.2.1 (UTC 2008-12-04)
Audio
ID : 1
Format : MPEG Audio
Format version : Version 1
Format profile : Layer 3
Mode : Joint stereo
Codec ID : 55
Codec ID/Hint : MP3
Duration : 2h 5mn
Bit rate mode : Constant
Bit rate : 112 Kbps
Channel(s) : 2 channels
Sampling rate : 48.0 KHz
Compression mode : Lossy
Stream size : 101 MiB (14%)
Alignment : Aligned on interleaves
Interleave, duration : 42 ms (1.00 video frame)
Interleave, preload duration : 504 ms
Writing library : LAME3.90.3
Audio 2 (отдельно)
Format : MPEG Audio
Format version : Version 1
Format profile : Layer 3
Mode : Joint stereo
Mode extension : MS Stereo
Duration : 2h 5mn
Bit rate mode : Constant
Bit rate : 128 Kbps
Channel(s) : 2 channels
Sampling rate : 48.0 KHz
Compression mode : Lossy
Stream size : 115 MiB (100%)
Audio 3 (отдельно)
Format : MPEG Audio
Format version : Version 1
Format profile : Layer 3
Duration : 2h 5mn
Bit rate mode : Constant
Bit rate : 128 Kbps
Channel(s) : 2 channels
Sampling rate : 48.0 KHz
Compression mode : Lossy
Stream size : 115 MiB (100%)
Writing library : LAME3.98r
Encoding settings : -m s -V 4 -q 2 -lowpass 17 -b 128
Audio 4 (отдельно)
Format : MPEG Audio
Format version : Version 1
Format profile : Layer 3
Mode : Joint stereo
Mode extension : MS Stereo
Duration : 2h 5mn
Bit rate mode : Constant
Bit rate : 128 Kbps
Channel(s) : 2 channels
Sampling rate : 48.0 KHz
Compression mode : Lossy
Stream size : 115 MiB (100%)



Скачать Виллоу.Willow.(Рон.Ховард.Ron.Howard).[1988.г.Фэнтези.BDRip].3х[MVO].+.[AVO].(А.Гаврилов).torrent без регистрации
Золото ЗОЛОТАЯ РАЗДАЧА! СКАЧАННОЕ НЕ ЗАСЧИТЫВАЕТСЯ! Золото
Дата: Зарегистрирован   [ Тип: внутренний ] Как тут cкачать?
MAGNET ссылка
MAGNET ссылка


Скачать .torrent

11 KB

Статус: проверено DHT
Скачан: торрент - 103 раз, раздача полностью - 1 раз
Размер: 1,06 GB
Оценка:  - (Голосов: 0)
Поблагодарили: 0
Поделиться ссылкой на эту раздачу с друзьями:
В контактеFacebookОдноклассникиTwitterLivejournalМой МирLiveinternet
 

 
Показать сообщения:    


Вы не можете начинать темы
Вы не можете отвечать на сообщения
Вы не можете редактировать свои сообщения
Вы не можете удалять свои сообщения
Вы не можете голосовать в опросах
Вы не можете прикреплять файлы к сообщениям
Вы можете скачивать файлы