Loading...
Error

Скачать Гонки «Пушечное ядро» 2 / Cannonball Run 2 (Хэл Нидэм / Hal Needham) [1984 г., боевик, комедия, приключения, DVDRip] [VO] (VHS) торрент без регистрации

 
Статистика раздачи
Размер:  1,45 GB   |    Скачан:  172 раза
Сидов:  1  [  0 KB/s  ]  
 
Автор Сообщение

leon030982

[] 

Гонки «Пушечное ядро» 2 / Cannonball Run 2


Год выпуска: 1984
Страна: США, Гонконг
Жанр: боевик, комедия, приключения
Продолжительность: 01:44:43
Перевод: Профессиональный (одноголосый, закадровый)
Режиссер: Хэл Нидэм / Hal Needham

В ролях: Берт Рейнолдс,Джеки Чан, Дом ДеЛуис, Дин Мартин, Сэмми Дэвис-мл., Джейми Фэрр, Марилу Хеннер, Телли Савалас, Ширли МакЛейн, Сьюзэн Энтон, Кэтрин Бах, Фостер Брукс, Сид Сизар, Тим Конуэй, Тони Данца, Джек Илэм, Майкл В. Гаццо, Ричард Кил, Дон Ноттс, Рикардо Монтальбан, Джим Нейборс, Луис Най, Молли Пайкон, Чарлз Нельсон Рейли, Алекс Рокко, Генри Сильва, Фрэнк Синатра, Джо Трейсманн, Мэл Тиллис, Эйб Вайгода, Фред Драйер, Дэйл Ишимото, Арт Джонсон, Лидия Лей, Крис Леммон, Джордж Линдси, Даг МакКлер, Джилли Риццо, Даб Тейлор, Бобби Берозини, Шон Уэзерли, Шон Александр, Беатрис Данмор, Деби Греко...

Описание: Арабский шейх устроил своему сыну выволочку за то, что тот проиграл автогонку "Кеннонбол". Чтобы доказать отцу, что природа на нем не отдыхает, молодой шейх решил купить следующую гонку и установил приз победителю в миллион долларов США. Теперь он уверен, - победа у него кармане, но обстоятельства обернулись иначе. На обещанный миллион в Америку слетаются многочисленные авантюристы, включая итальянскую мафию. Последние желают не только завладеть указанной суммой, но и увеличить ее, взяв в заложники богатого арабского наследника. По этому поводу все гонщики и им сочувствующие объединяются, чтобы спасти молодого шейха. Это им удается и гонка продолжается, но... шейх ее проигрывает. Что же делать? Папа будет ругаться... Делать нечего, придется купить еще одну гонку...

Автор релиза:
Качество видео: DVDRip
Формат файла: AVI
Видео: 720x400, 25.000 fps, MPEG-4 Visual, 1847 kbps
Аудио: 48 kHz, MP3, 2 ch, 128 kbps [Russian]
General
Format : AVI
Format/Info : Audio Video Interleave
File size : 1.45 GiB
Duration : 1h 44mn
Overall bit rate : 1 985 Kbps
Writing application : VirtualDubMod 1.5.10.3 | www.virtualdub-fr.org || (build 2550/release)
Writing library : VirtualDubMod build 2550/release
Video
ID : 0
Format : MPEG-4 Visual
Format profile : Advanced Simple@L5
Format settings, BVOP : 2
Format settings, QPel : No
Format settings, GMC : No warppoints
Format settings, Matrix : Default (MPEG)
Codec ID : XVID
Codec ID/Hint : XviD
Duration : 1h 44mn
Bit rate : 1 847 Kbps
Width : 720 pixels
Height : 400 pixels
Display aspect ratio : 16:9
Frame rate : 25.000 fps
Color space : YUV
Chroma subsampling : 4:2:0
Bit depth : 8 bits
Scan type : Progressive
Compression mode : Lossy
Bits/(Pixel*Frame) : 0.257
Stream size : 1.35 GiB (93%)
Writing library : XviD 1.2.1 (UTC 2008-12-04)
Audio
ID : 1
Format : MPEG Audio
Format version : Version 1
Format profile : Layer 3
Codec ID : 55
Codec ID/Hint : MP3
Duration : 1h 44mn
Bit rate mode : Constant
Bit rate : 128 Kbps
Channel(s) : 2 channels
Sampling rate : 48.0 KHz
Compression mode : Lossy
Stream size : 95.9 MiB (6%)
Alignment : Aligned on interleaves
Interleave, duration : 40 ms (1.00 video frame)
Interleave, preload duration : 504 ms




Скачать Гонки.«Пушечное.ядро».2.Cannonball.Run.2.(Хэл.Нидэм.Hal.Needham).[1984.г.боевик.комедия.приключения.DVDRip].[VO].(VHS).torrent без регистрации
Золото ЗОЛОТАЯ РАЗДАЧА! СКАЧАННОЕ НЕ ЗАСЧИТЫВАЕТСЯ! Золото
Дата: Зарегистрирован   [ Тип: внутренний ] Как тут cкачать?
MAGNET ссылка
MAGNET ссылка


Скачать .torrent

15 KB

Статус: проверено DHT
Скачан: торрент - 172 раз, раздача полностью - 26 раз
Размер: 1,45 GB
Оценка:  5 (Голосов: 1)
Поблагодарили: 3
Поделиться ссылкой на эту раздачу с друзьями:
В контактеFacebookОдноклассникиTwitterLivejournalМой МирLiveinternet
 

 
Показать сообщения:    


Вы не можете начинать темы
Вы не можете отвечать на сообщения
Вы не можете редактировать свои сообщения
Вы не можете удалять свои сообщения
Вы не можете голосовать в опросах
Вы не можете прикреплять файлы к сообщениям
Вы можете скачивать файлы