Loading...
Error

Скачать Вызов / Defiance (Эдвард Цвик) [2008, боевик, триллер, драма, военный, BDRip-AVC] [MVO]+[DVO]+[AVO]+[Sub] торрент без регистрации

 
Статистика раздачи
Размер:  4,5 GB   |    Скачан:  116 раз

Полного источника не было: 27 минут

 
Автор Сообщение

Marsianka

[] 

Информация о фильме
Название: Вызов
Оригинальное название: Defiance
Год выхода: 2008
Жанр: боевик, триллер, драма, военный
Режиссер: Эдвард Цвик
В ролях: Дэниэл Крэйг, Лив Шрайбер, Джейми Белл, Алекса Давалос, Аллан Кордунер, Марк Фойерстин, Томас Арана, Джожи Мэй, Кейт Фахи, Иддо Голдберг, Ибен Йейле, Мартин Хэнкок, Равиль Исянов, Яцек Коман, Джордж Маккэй, Джонджо ОНил, Сэм Спруэлл, Миа Васиковска, Марк Марголис, Маркус Фон Линген, Роландас Боравскис, Альгирдас Дайнавичус, Видас Пяткявичюс, Ана Голдберг, Леонардас Победоносцевас, Римгаудас Карвялис, Янина Матеконите, Леонас Цюнис, Клэйтон Фроман, Марк Леви, Зои Розенблюм, Сакалас Уждавинис, Леонид Котик, Диана Анявичюте, Сигитас Рачкис, Дмитрий Денисюк

О фильме:
Трое братьев-евреев сбегают из оккупированной Польши в белорусские леса, где присоединяются к антифашистской борьбе и объявляют войну оккупантам.



Страна: США, Defiance Productions, Grosvenor Park Productions, Paramount Vantage, Pistachio Pictures Ltd., The Bedford Falls Company
Продолжительность: 02:16:48
Перевод: Профессиональный многоголосый, профессиональый двухголосый, авторский одноголосый
Субтитры: Русские, английские
Дата релиза: 02.03.2013

Файл
Кодек: H.264
Качество: BDRip (AVC) (Blu-Ray (1080p))
Видео: MPEG-4 AVC, 2599 Кбит/с, 1024x552
Аудио #1: Русский (AC3, 6 ch, 448 Кбит/с) профессиональный многоголосый
Аудио #2: Русский (AC3, 6 ch, 384 Кбит/с) профессиональный двухголосый (НТВ+)
Аудио #3: Русский (AC3, 6 ch, 448 Кбит/с) авторский одноголосый (Юрий Живов)
Аудио #4: Украинский (AC3, 6 ch, 384 Кбит/с) профессиональный многоголосый
Аудио #5: Английский (AC3, 6 ch, 448 Кбит/с)
Общее
Уникальный идентификатор : 193527940698002257074546382675128503979 (0x91982027C0DB8570B783946DA1FE4EAB)
Полное имя : D:1Vyzov.2008.x264.BDRip.(AVC).ExKinoRay.mkv
Формат : Matroska
Версия формата : Version 2
Размер файла : 4,50 Гбайт
Продолжительность : 2 ч. 16 м.
Общий поток : 4706 Кбит/сек
Название фильма : Vyzov.2008.x264.BDRip.(AVC).ExKinoRay
Дата кодирования : UTC 2013-03-02 10:24:58
Программа кодирования : mkvmerge v4.0.0 ('The Stars were mine') сборка от Jun 6 2010 16:18:42
Библиотека кодирования : libebml v1.0.0 + libmatroska v1.0.0

Видео
Идентификатор : 1
Формат : AVC
Формат/Информация : Advanced Video Codec
Профиль формата : High@L4.1
Параметр CABAC формата : Да
Параметр ReFrames формата : 8 кадров
Идентификатор кодека : V_MPEG4/ISO/AVC
Продолжительность : 2 ч. 16 м.
Битрейт : 2599 Кбит/сек
Ширина : 1024 пикселя
Высота : 552 пикселя
Соотношение сторон : 1,855
Частота кадров : 23,976 кадра/сек
Цветовое пространство : YUV
Субдискретизация насыщенности : 4:2:0
Битовая глубина : 8 бит
Тип развёртки : Прогрессивная
Бит/(Пиксели*Кадры) : 0.192
Размер потока : 2,39 Гбайт (53%)
Заголовок : Rip by rondik
Библиотека кодирования : x264 core 129 r2245 bc13772
Настройки программы : cabac=1 / ref=8 / deblock=1:-3:-3 / analyse=0x3:0x133 / me=umh / subme=11 / psy=1 / psy_rd=1.00:0.00 / mixed_ref=1 / me_range=48 / chroma_me=1 / trellis=2 / 8x8dct=1 / cqm=0 / deadzone=21,11 / fast_pskip=0 / chroma_qp_offset=-2 / threads=3 / lookahead_threads=1 / sliced_threads=0 / nr=0 / decimate=0 / interlaced=0 / bluray_compat=0 / constrained_intra=0 / bframes=8 / b_pyramid=2 / b_adapt=2 / b_bias=0 / direct=3 / weightb=1 / open_gop=0 / weightp=2 / keyint=240 / keyint_min=23 / scenecut=40 / intra_refresh=0 / rc_lookahead=40 / rc=2pass / mbtree=1 / bitrate=2599 / ratetol=1.0 / qcomp=0.60 / qpmin=10 / qpmax=51 / qpstep=4 / cplxblur=20.0 / qblur=0.5 / ip_ratio=1.40 / aq=2:1.00
Язык : English

Аудио #1
Идентификатор : 2
Формат : AC-3
Формат/Информация : Audio Coding 3
Расширение режима : CM (complete main)
Идентификатор кодека : A_AC3
Продолжительность : 2 ч. 16 м.
Вид битрейта : Постоянный
Битрейт : 448 Кбит/сек
Каналы : 6 каналов
Расположение каналов : Front: L C R, Side: L R, LFE
Частота : 48,0 КГц
Битовая глубина : 16 бит
Метод сжатия : С потерями
Размер потока : 438 Мбайт (10%)
Заголовок : многоголосый
Язык : Russian

Аудио #2
Идентификатор : 3
Формат : AC-3
Формат/Информация : Audio Coding 3
Расширение режима : CM (complete main)
Идентификатор кодека : A_AC3
Продолжительность : 2 ч. 16 м.
Вид битрейта : Постоянный
Битрейт : 384 Кбит/сек
Каналы : 6 каналов
Расположение каналов : Front: L C R, Side: L R, LFE
Частота : 48,0 КГц
Битовая глубина : 16 бит
Метод сжатия : С потерями
Размер потока : 376 Мбайт (8%)
Заголовок : двухголосый (НТВ+)
Язык : Russian

Аудио #3
Идентификатор : 4
Формат : AC-3
Формат/Информация : Audio Coding 3
Расширение режима : CM (complete main)
Идентификатор кодека : A_AC3
Продолжительность : 2 ч. 16 м.
Вид битрейта : Постоянный
Битрейт : 448 Кбит/сек
Каналы : 6 каналов
Расположение каналов : Front: L C R, Side: L R, LFE
Частота : 48,0 КГц
Битовая глубина : 16 бит
Метод сжатия : С потерями
Размер потока : 438 Мбайт (10%)
Заголовок : авторский одноголосый (Юрий Живов)
Язык : Russian

Аудио #4
Идентификатор : 5
Формат : AC-3
Формат/Информация : Audio Coding 3
Расширение режима : CM (complete main)
Идентификатор кодека : A_AC3
Продолжительность : 2 ч. 16 м.
Вид битрейта : Постоянный
Битрейт : 384 Кбит/сек
Каналы : 6 каналов
Расположение каналов : Front: L C R, Side: L R, LFE
Частота : 48,0 КГц
Битовая глубина : 16 бит
Метод сжатия : С потерями
Размер потока : 376 Мбайт (8%)
Заголовок : Украинский

Аудио #5
Идентификатор : 6
Формат : AC-3
Формат/Информация : Audio Coding 3
Расширение режима : CM (complete main)
Идентификатор кодека : A_AC3
Продолжительность : 2 ч. 16 м.
Вид битрейта : Постоянный
Битрейт : 448 Кбит/сек
Каналы : 6 каналов
Расположение каналов : Front: L C R, Side: L R, LFE
Частота : 48,0 КГц
Битовая глубина : 16 бит
Метод сжатия : С потерями
Размер потока : 438 Мбайт (10%)
Заголовок : Английский
Язык : English

Текст #1
Идентификатор : 7
Формат : UTF-8
Идентификатор кодека : S_TEXT/UTF8
Идентификатор кодека/Информация : UTF-8 Plain Text
Язык : Russian

Текст #2
Идентификатор : 8
Формат : UTF-8
Идентификатор кодека : S_TEXT/UTF8
Идентификатор кодека/Информация : UTF-8 Plain Text
Язык : English

Меню
00:00:00.000 : en:Chapter 01
00:04:02.033 : en:Chapter 02
00:10:15.990 : en:Chapter 03
00:16:22.856 : en:Chapter 04
00:25:52.967 : en:Chapter 05
00:35:30.795 : en:Chapter 06
00:44:16.945 : en:Chapter 07
00:51:40.514 : en:Chapter 08
00:58:23.249 : en:Chapter 09
01:06:06.754 : en:Chapter 10
01:13:19.812 : en:Chapter 11
01:20:40.417 : en:Chapter 12
01:27:14.979 : en:Chapter 13
01:32:54.151 : en:Chapter 14
01:37:25.506 : en:Chapter 15
01:43:05.929 : en:Chapter 16
01:50:23.158 : en:Chapter 17
01:55:23.499 : en:Chapter 18
02:03:32.947 : en:Chapter 19
02:07:39.401 : en:Chapter 20
Семпл Релиз от:

Автор релиза: rondik



Скачать Вызов.Defiance.(Эдвард.Цвик).[2008.боевик.триллер.драма.военный.BDRip-AVC].[MVO]+[DVO]+[AVO]+[Sub].torrent без регистрации
Золото ЗОЛОТАЯ РАЗДАЧА! СКАЧАННОЕ НЕ ЗАСЧИТЫВАЕТСЯ! Золото
Дата: Зарегистрирован   [ Тип: внутренний ] Как тут cкачать?
MAGNET ссылка
MAGNET ссылка


Скачать .torrent

23 KB

Статус: проверено DHT
Скачан: торрент - 116 раз, раздача полностью - 87 раз
Размер: 4,5 GB
Оценка:  - (Голосов: 0)
Поблагодарили: 2
Поделиться ссылкой на эту раздачу с друзьями:
В контактеFacebookОдноклассникиTwitterLivejournalМой МирLiveinternet
 

 
Показать сообщения:    


Вы не можете начинать темы
Вы не можете отвечать на сообщения
Вы не можете редактировать свои сообщения
Вы не можете удалять свои сообщения
Вы не можете голосовать в опросах
Вы не можете прикреплять файлы к сообщениям
Вы можете скачивать файлы