Loading...
Error

Скачать История Бадди Холли / The Buddy Holly Story (Стив Раш) [1978, драма, биография, музыка, DVDRip-AVC] [MVO]+[Sub] торрент без регистрации

 
Статистика раздачи
Размер:  1,7 GB   |    Скачан:  100 раз
Сидов:  1  [  0 KB/s  ]  
 
Автор Сообщение

Marsianka

[] 

Информация о фильме
Название: История Бадди Холли
Оригинальное название: The Buddy Holly Story
Год выхода: 1978
Жанр: драма, биография, музыка
Режиссер: Стив Раш / Steve Rash
В ролях: Гэри Бьюзи / Gary Busey, Дон Страуд / Don Stroud, Чарльз Мартин Смит / Charles Martin Smith, Conrad Janis, William Jordan

О фильме:
Короткая, но яркая жизнь пионера рока...

Бадди Холли - звезда 50-х, один из основоположников американского рока (рок-н-ролла), автор многочисленных хитов, которые вызывают восторг и спустя полвека. Фильм Стива Раша - яркий рассказ о короткой жизни знаменитого певца, трагически погибшего в 22 года, и, конечно, много-много классной музыки. Для Гэри Бьюзи ("Смертельное оружие", 1987), "главного негодяя" Голливуда, роль выдающегося земляка (оба родились в Техасе), по общему признанию, стала самой значительной в карьере. Бьюзи и вправду сыграл в этой картине словно на одном дыхании.

1956 год. В провинциальном Лаббоке тинейджеры неистовствуют на концертах Бадди Холли и его группы "The Crickets". И хотя папа звезды районного масштаба считает, что сыну лучше бы заняться чем-нибудь серьезным вроде продажи кирпича, а в местной церкви "вульгарные ритмы джунглей" предают анафеме, новую музыку уже не задушишь, не убьешь...
Тем более что случайно попавшая на радио запись одной из песен мгновенно взлетает на вершины хит-парадов...




Страна: США
Студия: ECA, Innovisions
Продолжительность: 01:54:07
Перевод: Профессиональный (многоголосный закадровый) R5 Cinema Prestige

Файл
Кодек: h.264
Качество: DVDRip-AVC
Видео: 688x448 (16:9) @ 812x448 (анаморф), 23.976 fps, AVC, ~1749 Kbps, 0.237 bits/pixel
Звук:
1) Русский, 48.0 KHz, AC3, 2 ch, 192 Kbps
2) Английский, 48.0 KHz, AC3, 2 ch, 192 Kbps
Субтитры: Русские, Vobsub
Общее
Уникальный идентификатор : 211535727866398619648380482317758855752 (0x9F244C9C57222D19890ACAA2D1557A48)
Полное имя : E:FilmsIstoria_Baddi_Holli.1978.DVDRip-AVC.mkv
Формат : Matroska
Версия формата : Version 4 / Version 2
Размер файла : 1,70 Гбайт
Продолжительность : 1 ч. 54 м.
Общий поток : 2136 Кбит/сек
Дата кодирования : UTC 2013-03-13 16:46:51
Программа кодирования : mkvmerge v6.1.0 ('Old Devil') built on Mar 2 2013 14:32:37
Библиотека кодирования : libebml v1.3.0 + libmatroska v1.4.0

Видео
Идентификатор : 1
Формат : AVC
Формат/Информация : Advanced Video Codec
Профиль формата : High@L4.1
Параметр CABAC формата : Да
Параметр ReFrames формата : 9 кадров
Идентификатор кодека : V_MPEG4/ISO/AVC
Продолжительность : 1 ч. 54 м.
Битрейт : 1749 Кбит/сек
Ширина : 688 пикселей
Высота : 448 пикселей
Соотношение сторон : 16:9
Соотношение сторон в оригинале : 16:9
Режим частоты кадров : Постоянный
Частота кадров : 23,976 кадра/сек
Цветовое пространство : YUV
Субдискретизация насыщенности : 4:2:0
Битовая глубина : 8 бит
Тип развёртки : Прогрессивная
Бит/(Пиксели*Кадры) : 0.237
Размер потока : 1,36 Гбайт (80%)
Библиотека кодирования : x264 core 129 r2245 bc13772
Настройки программы : cabac=1 / ref=9 / deblock=1:0:0 / analyse=0x3:0x133 / me=umh / subme=10 / psy=1 / psy_rd=1.05:0.10 / mixed_ref=1 / me_range=32 / chroma_me=1 / trellis=2 / 8x8dct=1 / cqm=0 / deadzone=21,11 / fast_pskip=0 / chroma_qp_offset=-3 / threads=8 / lookahead_threads=1 / sliced_threads=0 / nr=0 / decimate=0 / interlaced=0 / bluray_compat=0 / constrained_intra=0 / bframes=16 / b_pyramid=2 / b_adapt=2 / b_bias=0 / direct=3 / weightb=1 / open_gop=0 / weightp=2 / keyint=240 / keyint_min=23 / scenecut=40 / intra_refresh=0 / rc=2pass / mbtree=0 / bitrate=1749 / ratetol=1.0 / qcomp=0.60 / qpmin=0 / qpmax=60 / qpstep=4 / cplxblur=20.0 / qblur=0.5 / ip_ratio=1.40 / pb_ratio=1.30 / aq=2:1.00
Default : Нет
Forced : Нет
Коэффициенты матрицы : BT.601

Аудио #1
Идентификатор : 2
Формат : AC-3
Формат/Информация : Audio Coding 3
Расширение режима : CM (complete main)
Параметр Endianness формата : Big
Идентификатор кодека : A_AC3
Продолжительность : 1 ч. 54 м.
Вид битрейта : Постоянный
Битрейт : 192 Кбит/сек
Каналы : 2 канала
Расположение каналов : Front: L R
Частота : 48,0 КГц
Битовая глубина : 16 бит
Метод сжатия : С потерями
Размер потока : 157 Мбайт (9%)
Язык : Russian
Default : Да
Forced : Нет

Аудио #2
Идентификатор : 3
Формат : AC-3
Формат/Информация : Audio Coding 3
Расширение режима : CM (complete main)
Параметр Endianness формата : Big
Идентификатор кодека : A_AC3
Продолжительность : 1 ч. 54 м.
Вид битрейта : Постоянный
Битрейт : 192 Кбит/сек
Каналы : 2 канала
Расположение каналов : Front: L R
Частота : 48,0 КГц
Битовая глубина : 16 бит
Метод сжатия : С потерями
Размер потока : 157 Мбайт (9%)
Язык : English
Default : Нет
Forced : Нет

Текст
Идентификатор : 4
Формат : VobSub
Режим смешивания : zlib
Идентификатор кодека : S_VOBSUB
Идентификатор кодека/Информация : The same subtitle format used on DVDs
Язык : Russian
Default : Нет
Forced : Нет

Меню
00:00:00.000 : en:Chapter 01
00:02:22.000 : en:Chapter 02
00:04:22.167 : en:Chapter 03
00:07:37.968 : en:Chapter 04
00:09:28.368 : en:Chapter 05
00:14:09.868 : en:Chapter 06
00:16:19.268 : en:Chapter 07
00:19:42.969 : en:Chapter 08
00:23:59.469 : en:Chapter 09
00:26:29.803 : en:Chapter 10
00:30:29.270 : en:Chapter 11
00:33:00.437 : en:Chapter 12
00:36:34.470 : en:Chapter 13
00:46:31.637 : en:Chapter 14
00:49:20.704 : en:Chapter 15
00:50:49.505 : en:Chapter 16
00:53:07.939 : en:Chapter 17
00:55:16.972 : en:Chapter 18
00:56:24.806 : en:Chapter 19
01:02:20.839 : en:Chapter 20
01:10:04.006 : en:Chapter 21
01:17:50.273 : en:Chapter 22
01:23:56.673 : en:Chapter 23
01:29:42.474 : en:Chapter 24
01:32:50.541 : en:Chapter 25
01:37:06.975 : en:Chapter 26
01:40:51.975 : en:Chapter 27
01:44:40.175 : en:Chapter 28
frame I:968 Avg QP:15.23 size: 49630
frame P:34324 Avg QP:18.04 size: 18643
frame B:128868 Avg QP:20.32 size: 6277
Релиз от: Temperest



Скачать История.Бадди.Холли.The.Buddy.Holly.Story.(Стив.Раш).[1978.драма.биография.музыка.DVDRip-AVC].[MVO]+[Sub].torrent без регистрации
Золото ЗОЛОТАЯ РАЗДАЧА! СКАЧАННОЕ НЕ ЗАСЧИТЫВАЕТСЯ! Золото
Дата: Зарегистрирован   [ Тип: внутренний ] Как тут cкачать?
MAGNET ссылка
MAGNET ссылка


Скачать .torrent

18 KB

Статус: проверено DHT
Скачан: торрент - 100 раз, раздача полностью - 0 раз
Размер: 1,7 GB
Оценка:  - (Голосов: 0)
Поблагодарили: 1
Поделиться ссылкой на эту раздачу с друзьями:
В контактеFacebookОдноклассникиTwitterLivejournalМой МирLiveinternet
 

 
Показать сообщения:    


Вы не можете начинать темы
Вы не можете отвечать на сообщения
Вы не можете редактировать свои сообщения
Вы не можете удалять свои сообщения
Вы не можете голосовать в опросах
Вы не можете прикреплять файлы к сообщениям
Вы можете скачивать файлы