Loading...
Error

Скачать Любовь вне правил / Leatherheads (Джордж Клуни) [2008, драма, мелодрама, комедия, спорт, BDRip-AVC] [MVO]+[Оригинал]+[Sub] торрент без регистрации

 
Статистика раздачи
Размер:  1,45 GB   |    Скачан:  105 раз
Сидов:  1  [  0 KB/s  ]  
 
Автор Сообщение

Marsianka

[] 

Любовь вне правил / Leatherheads (2008) BDRip-AVC

Информация о фильме
Название: Любовь вне правил
Оригинальное название: Leatherheads
Год выхода: 2008
Жанр: драма, мелодрама, комедия, спорт
Режиссер: Джордж Клуни

В ролях: Джордж Клуни, Рене Зеллвегер, Джон Красински, Джонатан Прайс, Дэвид Де Фриз, Рик Форрестер, Крэйг С. Харпер, Малкольм Гудвин, Мэтт Бушнелл, Томми Хинкли ...

О фильме: 1925 год. Додж Коннели очаровательный, дерзкий капитан футбольной команды, который полон решительности сделать свою команду низшего уровня известной по всей Америке. В тот момент, когда игроки теряют спонсора, да и сама лига находится на грани развала, Додж убеждает звездного игрока из колледжа присоединится к его сброду. Он надеется, что это поможет команде наконец привлечь к себе внимание всей страны.

Так в команде появляется Картер Разерфорд, любимец Америки. Герой Первой Мировой войны, в одиночку взявший в плен многочисленный отряд немецких солдат. Помимо того, что Картер красавец, он еще и может похвастаться невероятной скоростью на поле. В новом игроке все слишком хорошо, чтобы быть правдой, и Лекси Литтлтон решает доказать, что так оно и есть.

Начинающая репортерша Лекси подозревает, что военная история Картера не без изъянов. И пока она копается в прошлом, Додж и Картер увлекаются девушкой, что приводит к серьезному соперничеству двух товарищей по команде.



Страна: США, Германия
Продолжительность: 01:53:43
Перевод: Профессиональный (многоголосый закадровый), Оригинал (Оригинал)

Файл
Кодек: x.264
Качество: BDRip-AVC
Видео: 1024x556 (1,85:1), 23.976 fps, 1442 kbps, 0.106 bit/pixel
Аудио #1: 48 kHz, AC3 Dolby Digital, 2 ch, ~192.00 kbps (Русский)
Аудио #2: 48 kHz, AC3 Dolby Digital, 2 ch, ~192.00 kbps (Английский)
Субтитры: Русские, Английские (отключаемые)
Сэмпл

&
Общее
Уникальный идентификатор : 244503502391940189150360155909835607227 (0xB7F1A963A035C0C1A0A43B0EC23A4CBB)
Полное имя : D:Leatherheads.2008.BDRip-AVC.mkv
Формат : Matroska
Версия формата : Version 4 / Version 2
Размер файла : 1,45 Гбайт
Продолжительность : 1 ч. 53 м.
Общий поток : 1827 Кбит/сек
Название фильма : Любовь вне правил / Leatherheads (2008) BDRip-AVC от Rulya74
Дата кодирования : UTC 2013-03-13 05:12:19
Программа кодирования : mkvmerge v6.1.0 ('Old Devil') built on Mar 2 2013 14:32:37
Библиотека кодирования : libebml v1.3.0 + libmatroska v1.4.0

Видео
Идентификатор : 1
Формат : AVC
Формат/Информация : Advanced Video Codec
Профиль формата : High@L4.1
Параметр CABAC формата : Да
Параметр ReFrames формата : 13 кадров
Идентификатор кодека : V_MPEG4/ISO/AVC
Продолжительность : 1 ч. 53 м.
Битрейт : 1442 Кбит/сек
Ширина : 1024 пикселя
Высота : 556 пикселей
Соотношение сторон : 1,85:1
Режим частоты кадров : Постоянный
Частота кадров : 23,976 кадра/сек
Цветовое пространство : YUV
Субдискретизация насыщенности : 4:2:0
Битовая глубина : 8 бит
Тип развёртки : Прогрессивная
Бит/(Пиксели*Кадры) : 0.106
Размер потока : 1,12 Гбайт (77%)
Библиотека кодирования : x264 core 130 r2273 b3065e6
Настройки программы : cabac=1 / ref=13 / deblock=1:-3:-3 / analyse=0x3:0x133 / me=umh / subme=11 / psy=1 / psy_rd=1.40:0.22 / mixed_ref=1 / me_range=32 / chroma_me=1 / trellis=2 / 8x8dct=1 / cqm=0 / deadzone=21,11 / fast_pskip=0 / chroma_qp_offset=-3 / threads=14 / lookahead_threads=2 / sliced_threads=0 / nr=0 / decimate=1 / interlaced=0 / bluray_compat=0 / constrained_intra=0 / bframes=9 / b_pyramid=2 / b_adapt=2 / b_bias=0 / direct=3 / weightb=1 / open_gop=0 / weightp=2 / keyint=240 / keyint_min=22 / scenecut=40 / intra_refresh=0 / rc_lookahead=40 / rc=2pass / mbtree=1 / bitrate=1442 / ratetol=1.0 / qcomp=0.60 / qpmin=0 / qpmax=69 / qpstep=4 / cplxblur=20.0 / qblur=0.5 / ip_ratio=1.40 / aq=1:1.00
Default : Да
Forced : Нет

Аудио #1
Идентификатор : 2
Формат : AC-3
Формат/Информация : Audio Coding 3
Расширение режима : CM (complete main)
Параметр Endianness формата : Big
Идентификатор кодека : A_AC3
Продолжительность : 1 ч. 53 м.
Вид битрейта : Постоянный
Битрейт : 192 Кбит/сек
Каналы : 2 канала
Расположение каналов : Front: L R
Частота : 48,0 КГц
Битовая глубина : 16 бит
Метод сжатия : С потерями
Размер потока : 156 Мбайт (11%)
Заголовок : Профессиональный (многоголосый закадровый)
Язык : Russian
Default : Да
Forced : Нет

Аудио #2
Идентификатор : 3
Формат : AC-3
Формат/Информация : Audio Coding 3
Расширение режима : CM (complete main)
Параметр Endianness формата : Big
Идентификатор кодека : A_AC3
Продолжительность : 1 ч. 53 м.
Вид битрейта : Постоянный
Битрейт : 192 Кбит/сек
Каналы : 2 канала
Расположение каналов : Front: L R
Частота : 48,0 КГц
Битовая глубина : 16 бит
Метод сжатия : С потерями
Размер потока : 156 Мбайт (11%)
Заголовок : Оригинал
Язык : English
Default : Нет
Forced : Нет

Текст #1
Идентификатор : 4
Формат : UTF-8
Идентификатор кодека : S_TEXT/UTF8
Идентификатор кодека/Информация : UTF-8 Plain Text
Язык : Russian
Default : Да
Forced : Нет

Текст #2
Идентификатор : 5
Формат : UTF-8
Идентификатор кодека : S_TEXT/UTF8
Идентификатор кодека/Информация : UTF-8 Plain Text
Язык : English
Default : Нет
Forced : Нет



Скачать Любовь.вне.правил.Leatherheads.(Джордж.Клуни).[2008.драма.мелодрама.комедия.спорт.BDRip-AVC].[MVO]+[Оригинал]+[Sub].torrent без регистрации
Золото ЗОЛОТАЯ РАЗДАЧА! СКАЧАННОЕ НЕ ЗАСЧИТЫВАЕТСЯ! Золото
Дата: Зарегистрирован   [ Тип: внутренний ] Как тут cкачать?
MAGNET ссылка
MAGNET ссылка


Скачать .torrent

15 KB

Статус: проверено DHT
Скачан: торрент - 105 раз, раздача полностью - 131 раз
Размер: 1,45 GB
Оценка:  - (Голосов: 0)
Поблагодарили: 1
Поделиться ссылкой на эту раздачу с друзьями:
В контактеFacebookОдноклассникиTwitterLivejournalМой МирLiveinternet
 

 
Показать сообщения:    


Вы не можете начинать темы
Вы не можете отвечать на сообщения
Вы не можете редактировать свои сообщения
Вы не можете удалять свои сообщения
Вы не можете голосовать в опросах
Вы не можете прикреплять файлы к сообщениям
Вы можете скачивать файлы